Поиск

2015 David Linx, Paolo Fresu, Diederik Wissels - The Whistleblowers (Heartland) {Bonsai, Tuk} [24-96]

2015 David Linx, Paolo Fresu, Diederik Wissels - The Whistleblowers (Heartland) {Bonsai, Tuk} [24-96]
Номер по каталогу:
BON151101 / TUK 010
Носитель:
WEB
Формат:
PCM
Тип рипа:
tracks
Контейнер:
FLAC (*.flac)
Количество каналов:
2.0
Разрядность/ЧД:
24/96
Битрейт аудио:
lossless
Время звучания:
00:54:15
Наличие сканов:
буклет pdf
Релизёр (источник):
M0p94ok

Треклист:

01. As One (feat. Cristophe Wallemme, Helge Andreas Norbakken & Quartetto Alborada) (04:40)
02. December (feat. Cristophe Wallemme, Helge Andreas Norbakken & Quartetto Alborada) (04:53)
03. This Dwelling Place (feat. Cristophe Wallemme & Helge Andreas Norbakken) (03:46)
04. The Whistleblowers (feat. Christophe Wallemme, Helge Andreas Norbakken & Quartetto Alborada) (04:07)
05. Trailblazers (feat. Cristophe Wallemme & Helge Andreas Norbakken) (03:26)
06. Paris (feat. Cristophe Wallemme, Helge Andreas Norbakken & Quartetto Alborada) (05:27)
07. Contradiction Takes Its Place, Pt. 1 (feat. Cristophe Wallemme & Helge Andreas Norbakken) (02:11)
08. Contradiction Takes Its Place, Pt. 2 (feat. Cristophe Wallemme & Helge Andreas Norbakken) (04:06)
09. O grande Kilapy (feat. Cristophe Wallemme & Helge Andreas Norbakken) (03:48)
10. Le tue mani (feat. Cristophe Wallemme & Helge Andreas Norbakken) (05:49)
11. Dredge Up (feat. Cristophe Wallemme, Helge Andreas Norbakken & Quartetto Alborada) (04:03)
12. Shake up Your Trust (For Kenny Wheeler) [feat. Cristophe Wallemme & Helge Andreas Norbakken] (05:14)
13. Confusion (feat. Cristophe Wallemme & Helge Andreas Norbakken) (02:37)

Лог проверки качества
foobar2000 1.6.2 / Dynamic Range Meter 1.1.1
log date: 2021-04-30 19:37:00

--------------------------------------------------------------------------------
Analyzed: David Linx / The Whistleblowers (1-11)
          Paolo Fresu / The Whistleblowers (12-13)
--------------------------------------------------------------------------------

DR         Peak         RMS     Duration Track
--------------------------------------------------------------------------------
DR10      -0.30 dB   -15.34 dB      4:38 01-As One
DR6       -0.30 dB    -9.87 dB      4:51 02-December
DR10      -0.30 dB   -15.12 dB      3:44 03-This Dwelling Place
DR8       -0.30 dB   -10.60 dB      4:10 04-The Whistleblowers
DR14      -0.97 dB   -18.72 dB      2:12 07-Contradiction Takes Its Place, Pt. 1
DR8       -0.30 dB   -10.69 dB      4:05 08-Contradiction Takes Its Place, Pt. 2
DR11      -0.30 dB   -14.10 dB      3:46 09-O Grande Kilapy
DR11      -0.30 dB   -14.17 dB      5:48 10-Le tue mani
DR8       -0.30 dB   -11.43 dB      4:01 11-Dredge Up
DR10      -0.30 dB   -14.32 dB      5:13 12-Shake up Your Trust
DR7       -0.30 dB   -10.21 dB      2:37 13-Confusion
DR10      -0.30 dB   -13.48 dB      3:25 05-Trailblazers
DR9       -0.30 dB   -11.80 dB      5:26 06-Paris
--------------------------------------------------------------------------------

Number of tracks:  13
Official DR value: DR9

Samplerate:        96000 Hz
Channels:          2
Bits per sample:   24
Bitrate:           2977 kbps
Codec:             FLAC
================================================================================
Приватный:
Нет (DHT включён)
Размер:
1.07 Гб (1,147,247,559 байт) » файлов: 16
Участники:
4 раздают, 0 качают (4 участников всего)
Внешние участники:
--- [ Обновить ]
No seeders - write personal message to M0p94ok. Any questions - support@pro-jazz.com.
Нет сидеров - пишите в личку M0p94ok. Есть вопросы - support@pro-jazz.com
23:55
45
Нет комментариев. Ваш будет первым!