Поиск

2020 Frequency Disasters - Frequency Disasters {Confront} [24-96]

2020 Frequency Disasters - Frequency Disasters {Confront} [24-96]
Стили:
Битрейт аудио:
lossless
Доп. инфо:

Формат записи/Источник записи: [TR24][OF]
Наличие водяных знаков: Нет
Год издания/переиздания диска: 2020
Издатель (лейбл): Confront Recordings
Продолжительность: 00:52:23
Наличие сканов в содержимом раздачи: Только обложка альбома

Контейнер: FLAC (*.flac)
Тип рипа: tracks
Разрядность: 24/96
Формат: PCM
Количество каналов: 2.0

Источник (релизер): bandcamp

Лог проверки качества
foobar2000 1.6.2 / Dynamic Range Meter 1.1.1
log date: 2021-02-23 19:26:04

--------------------------------------------------------------------------------
Analyzed: Frequency Disasters / Frequency Disasters
--------------------------------------------------------------------------------

DR         Peak         RMS     Duration Track
--------------------------------------------------------------------------------
DR16      -0.01 dB   -19.55 dB      9:34 01-Low Gulp
DR10      -0.01 dB   -11.55 dB      2:36 02-Studded Shirt
DR10      -0.01 dB   -11.40 dB      7:11 03-Tuttodipunta
DR12      -0.01 dB   -13.84 dB      3:27 04-Pink Quote
DR10      -1.22 dB   -14.09 dB      1:16 05-A Clumsy Title
DR11      -0.01 dB   -13.38 dB      8:01 06-Energetic Binge
DR10      -0.01 dB   -11.88 dB      4:53 07-Cosmic Blunders
DR10      -0.01 dB   -10.82 dB      2:58 08-Boyish Animation
DR10      -0.01 dB   -12.26 dB      2:50 09-Frequency Disasters
DR10      -0.01 dB   -12.03 dB      4:47 10-A Mellow Booming
DR10      -0.01 dB   -11.12 dB      4:48 11-The Delusion Metabolist
--------------------------------------------------------------------------------

Number of tracks:  11
Official DR value: DR11

Samplerate:        96000 Hz
Channels:          2
Bits per sample:   24
Bitrate:           3038 kbps
Codec:             FLAC
================================================================================
No seeders - write personal message to M0p94ok. Any questions - support@pro-jazz.com.
Нет сидеров - пишите в личку M0p94ok. Есть вопросы - support@pro-jazz.com
10:57
98
Нет комментариев. Ваш будет первым!