Поиск

1958 Chet Baker & Art Pepper - Playboys (2019) {RevOla} [24-44.1]

1958 Chet Baker & Art Pepper - Playboys (2019) {RevOla} [24-44.1]
Дата записи диска:
26 июля - 28 июля; 20 ноября - 21 ноября 1956
Место записи:
Radio Recorders, Hollywood, California
Издатель (лейбл):
Битрейт аудио:
lossless
Доп. инфо:

Tracks 1 to 7 recorded at Radio Recorders, Los Angeles, November 20 & 21, 1956.
Tracks 8 to 12 recorded at the Forum Theatre, Los Angeles, July 26 & 28, 1956.

Формат записи/Источник записи: [TR24][OF]
Издание: Remastered
Год издания/переиздания диска: 1956/2019
Продолжительность: 01:07:16
Наличие сканов в содержимом раздачи: Нет

Контейнер: FLAC (*.flac)
Тип рипа: tracks
Разрядность: 24/44,1
Количество каналов: 2.0

Источник (релизер): Qobuz

Лог проверки качества
foobar2000 1.4.3 / Dynamic Range Meter 1.1.1
log date: 2021-02-21 11:47:07

--------------------------------------------------------------------------------
Analyzed: Chet Baker / Playboys
--------------------------------------------------------------------------------

DR         Peak         RMS     Duration Track
--------------------------------------------------------------------------------
DR12      -0.55 dB   -15.28 dB      4:02 01, 01-For Minors Only (Remastered)
DR13      -0.46 dB   -16.13 dB      6:44 02, 02-Minor Yours (Remastered)
DR14      -0.42 dB   -16.75 dB      5:42 03, 03-Resonant Emotions (Remastered)
DR15      -0.95 dB   -18.19 dB      5:33 04, 04-Tynan Time (Remastered)
DR13      -0.67 dB   -16.52 dB      6:45 05, 05-Picture Of Heath (Remastered)
DR14      -1.46 dB   -18.04 dB      6:26 06, 06-For Miles And Miles (Remastered)
DR14      -1.46 dB   -18.30 dB      5:14 07, 07-C.T.A. (Remastered)
DR11      -1.19 dB   -14.16 dB      6:20 08, 08-Tynan Time (Alternate Take Remastered)
DR9       -1.66 dB   -13.71 dB      4:18 09, 09-Little Girl (Remastered)
DR12      -2.00 dB   -16.18 dB      7:14 10, 10-Minor Yours (Alternate Take Remastered)
DR11      -1.61 dB   -15.36 dB      3:57 11, 11-Sonny Boy (Remastered)
DR13      -2.11 dB   -17.79 dB      5:05 12, 12-The Route (Remastered)
--------------------------------------------------------------------------------

Number of tracks:  12
Official DR value: DR13

Samplerate:        44100 Hz
Channels:          2
Bits per sample:   24
Bitrate:           1365 kbps
Codec:             FLAC
================================================================================
No seeders - write personal message to M0p94ok. Any questions - support@pro-jazz.com.
Нет сидеров - пишите в личку M0p94ok. Есть вопросы - support@pro-jazz.com
14:20
98
Нет комментариев. Ваш будет первым!