Поиск

2020 Laura Perrudin - Perspectives & Avatars {Laurent Carrier Diffusion} [24-88.2]

2020 Laura Perrudin - Perspectives & Avatars {Laurent Carrier Diffusion} [24-88.2]
Битрейт аудио:
lossless
Доп. инфо:

Формат записи/Источник записи: [TR24][OF]
Наличие водяных знаков: Нет
Год издания/переиздания диска: 2020
Издатель (лейбл): Laurent Carrier Diffusion
Продолжительность: 00:46:59
Наличие сканов в содержимом раздачи: Да (сканы)
Источник (релизер): qobuz
Контейнер: FLAC (*.flac)
Тип рипа: tracks
Разрядность: 24/88,2
Формат: PCM
Количество каналов: 2.0

Лог проверки качества
foobar2000 1.1.15 / Dynamic Range Meter 1.1.1
log date: 2021-02-19 11:45:20

--------------------------------------------------------------------------------
Analyzed: Laura Perrudin / Perspectives & Avatars
--------------------------------------------------------------------------------

DR         Peak         RMS     Duration Track
--------------------------------------------------------------------------------
DR5       -0.33 dB    -8.33 dB      3:53 01-The W Word
DR6       -0.10 dB    -8.66 dB      4:50 02-Light Players
DR5       -0.37 dB    -8.52 dB      3:17 03-Follow Snow
DR5       -0.37 dB    -8.17 dB      4:35 04-Push Me
DR4       -0.35 dB    -8.06 dB      3:41 05-Well, They Lied
DR5       -0.37 dB    -9.36 dB      3:58 06-Game Over
DR7       -0.35 dB   -12.05 dB      3:45 07-From One Dark Side to Another
DR6       -0.38 dB   -10.13 dB      3:20 08-Country Townie Bird
DR6       -0.36 dB    -8.55 dB      3:16 09-Metasong
DR7       -0.36 dB   -10.66 dB      4:59 10-Le refuge de la couleur
DR6       -0.23 dB    -9.28 dB      3:15 11-Major Allegory of Norm
DR6       -0.37 dB    -8.77 dB      4:09 12-Something to Lose
--------------------------------------------------------------------------------

Number of tracks:  12
Official DR value: DR6

Samplerate:        88200 Hz
Channels:          2
Bits per sample:   24
Bitrate:           2734 kbps
Codec:             FLAC
================================================================================
No seeders - write personal message to M0p94ok. Any questions - support@pro-jazz.com.
Нет сидеров - пишите в личку M0p94ok. Есть вопросы - support@pro-jazz.com
15:57
91
Нет комментариев. Ваш будет первым!