Поиск

1955 Chet Baker - Sings And Plays With Bud Shank, Russ Freeman And Strings (2019) {RevOla} [24-44.1]

1955 Chet Baker - Sings And Plays With Bud Shank, Russ Freeman And Strings (2019) {RevOla} [24-44.1]
Издатель (лейбл):
Битрейт аудио:
lossless

Треклист:

01 - Let's Get Lost 03:45
02 - This Is Always 03:08
03 - Long Ago And Far Away 03:59
04 - Someone To Watch Over Me 03:03
05 - Just Friends 02:44
06 - I Wish I Knew 04:01
07 - Daybreak 02:43
08 - You Don't Know What Love Is 04:52
09 - Grey December 03:43
10 - I Remember You 03:14

Доп. инфо:

Формат записи/Источник записи: [TR24][OF]
Издание: Remastered
Год издания/переиздания диска: 1955/2019
Издатель (лейбл): RevOla
Продолжительность: 00:35:12
Наличие сканов в содержимом раздачи: Нет

Контейнер: FLAC (*.flac)
Тип рипа: tracks
Разрядность: 24/44,1
Количество каналов: 2.0

Источник (релизер): Qobuz

Лог проверки качества
foobar2000 1.4.3 / Dynamic Range Meter 1.1.1
log date: 2021-02-22 16:24:47

--------------------------------------------------------------------------------
Analyzed: Chet Baker / Sings And Plays With Bud Shank, Russ Freeman And Strings
--------------------------------------------------------------------------------

DR         Peak         RMS     Duration Track
--------------------------------------------------------------------------------
DR14      -2.91 dB   -18.46 dB      3:46 01-Let's Get Lost
DR10      -4.49 dB   -17.15 dB      3:09 02-This Is Always
DR12      -2.68 dB   -18.06 dB      3:59 03-Long Ago And Far Away
DR12      -3.34 dB   -18.32 dB      3:04 04-Someone To Watch Over Me
DR15      -1.87 dB   -20.62 dB      2:45 05-Just Friends
DR13      -2.87 dB   -18.32 dB      4:01 06-I Wish I Knew
DR13      -2.95 dB   -18.24 dB      2:44 07-Daybreak
DR12      -4.14 dB   -19.84 dB      4:53 08-You Don't Know What Love Is
DR12      -2.75 dB   -19.84 dB      3:43 09-Grey December
DR15      -2.49 dB   -19.23 dB      3:15 10-I Remember You
--------------------------------------------------------------------------------

Number of tracks:  10
Official DR value: DR13

Samplerate:        44100 Hz
Channels:          2
Bits per sample:   24
Bitrate:           1267 kbps
Codec:             FLAC
================================================================================
Приватный:
Нет (DHT включён)
Размер:
323.48 Мб (339,197,256 байт) » файлов: 15
Участники:
0 раздают, 0 качают (0 участников всего)
Внешние участники:
8 раздают, 2 качают (10 участников всего) [ Обновить ]
For power users only: no seeders - write personal message to M0p94ok. Для power user: нет сидеров - пишите в личку M0p94ok.
17:02
26
Нет комментариев. Ваш будет первым!