Поиск

2021 Niels Munk - Fantasilaboratoriet {Jaeger Community Music} [24-88.2]

2021 Niels Munk - Fantasilaboratoriet {Jaeger Community Music} [24-88.2]
Стили:
Дата издания диска:
15 января 2021
Битрейт аудио:
lossless

Треклист:

01. Laboratory Music [5:15]
02. Beginning Laboratory Blues [13:05]
03. Colour of White [2:43]
04. Song for July [7:31]
05. Dans Interlude [2:48]
06. August [5:34]
07. Niels Munk feat. Karmen Rõivassepp - Alt hvad jeg har gjort [6:47]

Доп. инфо:

Датский трубач и композитор Нильс Мунк выпускает свой дебютный альбом под названием Fantasilaboratoriet (LP / CD / Stream) 15 января 2021 года датским инди-лейблом Jaeger Community Music.

После обучения за границей в скандинавских странах, Нильс Мунк возвращается к своим корням в северной части Дании, вдохновленный, в частности, Кристианом Скоттом и направив вдохновение из скандинавской природы в свой первый релиз. Как следует из названия, музыка - это эксперимент, поскольку группа из 4 человек превращает индивидуальную музыкальность в очень открытые композиции.

Формат записи/Источник записи: [TR24][OF]
Наличие водяных знаков: Нет
Год издания/переиздания диска: 2021
Издатель (лейбл): Jaeger Community Music
Продолжительность: 43:40
Наличие сканов в содержимом раздачи: Нет

Контейнер: FLAC (*.flac)
Тип рипа: tracks
Разрядность: 24/88,2
Формат: PCM
Количество каналов: 2.0

Источник (релизер): prostudiomasters

Лог проверки качества
foobar2000 1.6.3 / Dynamic Range Meter 1.1.1
log date: 2021-01-20 08:02:19

--------------------------------------------------------------------------------
Analyzed: Niels Munk feat. Karmen Rõivassepp / Fantasilaboratoriet (1)
          Niels Munk / Fantasilaboratoriet (2-7)
--------------------------------------------------------------------------------

DR         Peak         RMS     Duration Track
--------------------------------------------------------------------------------
DR13      -0.62 dB   -17.71 dB      6:47 07-Alt hvad jeg har gjort
DR12      -0.61 dB   -14.92 dB      5:15 01-Laboratory Music
DR10      -0.60 dB   -12.93 dB     13:05 02-Beginning Laboratory Blues
DR10      -0.61 dB   -13.15 dB      2:43 03-Colour of White
DR10      -0.61 dB   -13.43 dB      7:31 04-Song for July
DR12      -1.25 dB   -17.91 dB      2:48 05-Dans Interlude
DR9       -0.61 dB   -13.88 dB      5:34 06-August
--------------------------------------------------------------------------------

Number of tracks:  7
Official DR value: DR11

Samplerate:        88200 Hz
Channels:          2
Bits per sample:   24
Bitrate:           2542 kbps
Codec:             FLAC
================================================================================
Приватный:
Нет (DHT включён)
Размер:
833.48 Мб (873,966,782 байт) » файлов: 9
Участники:
4 раздают, 0 качают (4 участников всего)
Внешние участники:
5 раздают, 1 качают (6 участников всего) [ Обновить ]
No seeders - write personal message to M0p94ok. Any questions - support@pro-jazz.com.
Нет сидеров - пишите в личку M0p94ok. Есть вопросы - support@pro-jazz.com
23:35
59
Нет комментариев. Ваш будет первым!