Вы используете незарегистрированную версию компонента "Вкладки"!

Поиск

1969 Roberta Flack - First Take (Deluxe Edition) (2021) {Rhino Atlantic} [24-192]

1969 Roberta Flack - First Take (Deluxe Edition) (2021) {Rhino Atlantic} [24-192]
Стили:
Издатель (лейбл):
Битрейт аудио:
lossless
Доп. инфо:

Формат записи/Источник записи: [TR24][OF]
Наличие водяных знаков: Нет
Продолжительность: 02:13:14
Наличие сканов в содержимом раздачи: Только обложка альбома
Контейнер: FLAC (*.flac)
Тип рипа: tracks
Разрядность: 24/44.1/192
Формат: PCM
Количество каналов: 2.0
Источник (релизер): hdtracks.com

Лог проверки качества
foobar2000 1.4.8 / Dynamic Range Meter 1.1.1
log date: 2021-02-26 08:56:05

--------------------------------------------------------------------------------
Analyzed: Roberta Flack / First Take (Remastered Deluxe Edition)
--------------------------------------------------------------------------------

DR         Peak         RMS     Duration Track
--------------------------------------------------------------------------------
DR11      -0.10 dB   -14.51 dB      5:17 01-Compared To What (2020 Remaster)
DR9       -0.10 dB   -13.37 dB      6:57 02-Angelitos Negros (2020 Remaster)
DR10      -0.10 dB   -14.37 dB      6:11 03-Our Ages Or Our Hearts (2020 Remaster)
DR11      -0.10 dB   -15.82 dB      6:10 04-I Told Jesus (2020 Remaster)
DR12      -0.10 dB   -15.61 dB      4:09 05-Hey, That's No Way To Say Goodbye (2020 Remaster)
DR12      -1.18 dB   -18.34 dB      5:23 06-The First Time Ever I Saw Your Face (2020 Remaster)
DR12      -0.55 dB   -16.85 dB      5:09 07-Tryin' Times (2020 Remaster)
DR10      -0.96 dB   -16.94 dB      7:06 08-Ballad of the Sad Young Men (2020 Remaster)
DR11      -0.47 dB   -13.98 dB      4:41 09-Compared To What (Single Edit) (Single Edit; 2020 Remaster)
DR12      -0.10 dB   -16.40 dB      4:20 10-The First Time Ever I Saw Your Face (Single Edit) (2020 Remaster)
DR11      -0.10 dB   -14.74 dB      5:43 11-Trade Winds (2020 Remaster)
DR10      -0.10 dB   -12.17 dB      1:20 13-This Could Be The Start Of Something
DR10      -0.10 dB   -12.84 dB      4:19 14-Groove Me
DR10      -0.10 dB   -14.50 dB      6:22 15-Nobody Knows You When You're Down and Out
DR11      -0.10 dB   -17.17 dB      5:32 16-Hush-A-Bye
DR13      -0.10 dB   -17.90 dB      9:13 17-Afro Blue
DR10      -0.10 dB   -16.22 dB      3:56 18-It's Way Past Suppertime
DR12      -0.10 dB   -15.55 dB      7:15 19-Frankie and Johnny
DR11      -0.10 dB   -13.99 dB      2:44 20-On the Street Where You Live
DR13      -0.10 dB   -20.16 dB      5:52 21-The House Song
DR9       -0.10 dB   -11.95 dB      3:25 22-Ain't No Mountain High Enough
DR9       -0.10 dB   -13.44 dB      5:20 23-The Song Is Love
DR10      -0.10 dB   -14.78 dB      8:25 24-To Sir With Love
--------------------------------------------------------------------------------

Number of tracks:  23
Official DR value: DR11
Samplerate:        192000 Hz
Channels:          2
Bits per sample:   24
Bitrate:           4574 kbps
Codec:             FLAC
================================================================================

foobar2000 1.4.8 / Dynamic Range Meter 1.1.1
log date: 2021-02-26 08:55:21

--------------------------------------------------------------------------------
Statistics for: 12-All the Way (Live; 2020 Remaster 44.1 kHz)
Number of samples: 22914116
Duration: 8:40
--------------------------------------------------------------------------------

                 Left              Right

Peak Value:     -3.85 dB   ---     -3.96 dB
Avg RMS:       -22.39 dB   ---    -22.01 dB
DR channel:     13.05 dB   ---     13.00 dB
--------------------------------------------------------------------------------

Official DR Value: DR13
Samplerate:        44100 Hz
Channels:          2
Bits per sample:   24
Bitrate:           1335 kbps
Codec:             FLAC
================================================================================
Any questions - support@pro-jazz.com. Есть вопросы - support@pro-jazz.com
17:30
93
Нет комментариев. Ваш будет первым!