Поиск

2014 David Weiss - When Words Fail {Motéma Music} [24-44,1]

2014 David Weiss - When Words Fail {Motéma Music} [24-44,1]
Номер по каталогу:
MTM 144
Носитель:
WEB
Формат:
PCM
Тип рипа:
tracks
Контейнер:
FLAC (*.flac)
Количество каналов:
2.0
Разрядность/ЧД:
24/44,1
Битрейт аудио:
lossless
Время звучания:
01:01:09
Наличие сканов:
только обложка
Наличие водяных знаков:
нет
Страна-производитель диска (релиза):
USA
Релизёр (источник):
M0p94ok

Треклист:

1. The Intrepid Hub  07:52
2. When Words Fail  08:11
3. MJ  06:45
4. Wayward  08:37
5. White Majic  05:01
6. Loss  08:30
7. Lullaby For A Lonely Child  07:18
8. Passage into Eternity  09:05

Лог проверки качества
foobar2000 1.3.16 / Dynamic Range Meter 1.1.1
log date: 2019-05-03 22:18:56

--------------------------------------------------------------------------------
Analyzed: David Weiss / When Words Fail
--------------------------------------------------------------------------------

DR         Peak         RMS     Duration Track
--------------------------------------------------------------------------------
DR11      -0.49 dB   -13.54 dB      7:52 01-The Intrepid Hub
DR10      -0.52 dB   -13.62 dB      8:11 02-When Words Fail
DR10      -0.53 dB   -12.97 dB      6:45 03-MJ
DR9       -0.51 dB   -12.48 dB      8:38 04-Wayward
DR10      -0.51 dB   -12.47 dB      5:02 05-White Majic
DR9       -0.50 dB   -13.17 dB      8:30 06-Loss
DR11      -0.53 dB   -14.51 dB      7:19 07-Lullaby For A Lonely Child
DR10      -0.52 dB   -13.65 dB      9:05 08-Passage into Eternity
--------------------------------------------------------------------------------

Number of tracks:  8
Official DR value: DR10

Samplerate:        44100 Hz
Channels:          2
Bits per sample:   24
Bitrate:           1551 kbps
Codec:             FLAC
================================================================================
Приватный:
Нет (DHT включён)
Размер:
691.64 Мб (725,238,063 байт) » файлов: 10
Участники:
5 раздают, 0 качают (5 участников всего)
Внешние участники:
--- [ Обновить ]
No seeders - write personal message to M0p94ok. Any questions - support@pro-jazz.com.
Нет сидеров - пишите в личку M0p94ok. Есть вопросы - support@pro-jazz.com
14:22
49
Нет комментариев. Ваш будет первым!