Поиск

1994 Lonnie Smith Trio - Foxy Lady: A Tribute to Hendrix (2017) {Venus VHGD-255} [DSD64 ISO]

1994 Lonnie Smith Trio - Foxy Lady: A Tribute to Hendrix (2017) {Venus VHGD-255} [DSD64 ISO]
Дата записи диска:
19 марта 1994
Место записи:
Sound Designer Studio, New York City, NY, USA
Издатель (лейбл):
Номер по каталогу:
VHGD-255
Битрейт аудио:
lossless
Доп. инфо:

Формат записи/Источник записи: [SACD-R][OF]
Наличие водяных знаков: Нет
Год издания/переиздания диска: 1994/2017
Продолжительность: 00:56:24
Наличие сканов в содержимом раздачи: Только обложка альбома

Контейнер: ISO (*.iso)
Тип рипа: image
Разрядность: 64(2,8 MHz/1 Bit)
Формат: DSD
Количество каналов: 2.0

Доп. информация: venusrecords
Источник (релизер): jazzy pic

Лог проверки качества
foobar2000 1.6.4 / Замер динамического диапазона (DR) 1.1.1
Дата отчёта:  2021-02-15 22:41:18

--------------------------------------------------------------------------------
Анализ:   LONNIE SMITH TRIO / Foxy Lady
--------------------------------------------------------------------------------

DR         Пики         RMS           Продолжительность трека
--------------------------------------------------------------------------------
DR4       -5.19 дБ    -9.83 дБ     10:01 01-Foxy Lady
DR3       -5.18 дБ    -9.64 дБ     23:36 02-Castles Made Of Sand ~ Star Spangled Banner
DR4       -5.24 дБ   -10.12 дБ     13:08 03-Third Stone From The Sun
DR3       -5.03 дБ    -9.37 дБ      9:39 04-Jimi Meets Miles
--------------------------------------------------------------------------------

Количество треков: 4
Реальные значения DR: DR3

Частота:  2822400 Гц / Частота PCM: 88200 Гц
Каналов:  2
Разрядность:   1
Битрейт:  5645 кбит/с
Кодек:   DSD64
================================================================================
No seeders - write personal message to M0p94ok. Any questions - support@pro-jazz.com.
Нет сидеров - пишите в личку M0p94ok. Есть вопросы - support@pro-jazz.com
15:59
87
Нет комментариев. Ваш будет первым!