Поиск

2019 Elephant9 - Psychedelic Backfire II {Rune Grammofon} [24-48]

2019 Elephant9 - Psychedelic Backfire II {Rune Grammofon} [24-48]
Стили:
Дата записи диска:
11 января - 12 января 2019
Место записи:
Live Concert, Kampen Bistro
Дата издания диска:
5 июля 2019
Носитель:
WEB
Формат:
PCM
Тип рипа:
tracks
Контейнер:
FLAC (*.flac)
Количество каналов:
2.0
Битрейт аудио:
lossless
Время звучания:
01:02:20
Наличие сканов:
только обложка
Страна-производитель диска (релиза):
Norway
Релизёр (источник):
M0p94ok
Лог проверки качества
foobar2000 1.6.2 / Dynamic Range Meter 1.1.1
log date: 2021-05-05 19:08:11

--------------------------------------------------------------------------------
Analyzed: Elephant9 / Psychedelic Backfire II
--------------------------------------------------------------------------------

DR         Peak         RMS     Duration Track
--------------------------------------------------------------------------------
DR6       -1.00 dB    -9.87 dB     14:11 01-You Are The Sunshine Of My Life
DR6       -1.00 dB    -7.74 dB     14:05 02-Skink/Fugl Fønix
DR5       -1.00 dB    -9.19 dB     15:19 03-Habanera Rocket
DR6       -1.00 dB    -8.89 dB     18:46 04-Freedom's Children/John Tinnick
--------------------------------------------------------------------------------

Number of tracks:  4
Official DR value: DR6

Samplerate:        48000 Hz
Channels:          2
Bits per sample:   24
Bitrate:           1698 kbps
Codec:             FLAC
================================================================================
No seeders - write personal message to M0p94ok. Any questions - support@pro-jazz.com.
Нет сидеров - пишите в личку M0p94ok. Есть вопросы - support@pro-jazz.com
19:17
79
Нет комментариев. Ваш будет первым!