Поиск

2021 MOOP - Ostara {Tonzonen} [24-44.1]

2021 MOOP - Ostara {Tonzonen} [24-44.1]
Стили:
Дата записи диска:
6 марта - 7 марта 2020
Место записи:
@ Le Local, Poitiers, France
Дата издания диска:
26 февраля 2021
Номер по каталогу:
TON 097
Битрейт аудио:
lossless

Треклист:

1. Manlayl - half completed / half started. 11:27
2. #eule. 7:40
3. Ostara. 11:31
4. Papatte douce. 3:18

Доп. инфо:

Формат записи/Источник записи: [TR24][OF]
Наличие водяных знаков: Нет
Год издания/переиздания диска: 2021
Издатель (лейбл): Tonzonen
Продолжительность: 33:56 min
Наличие сканов в содержимом раздачи: обложка

Контейнер: FLAC (*.flac)
Тип рипа: tracks
Разрядность: 24/44,1
Формат: PCM
Количество каналов: 2.0

https://moopercrew.bandcamp.com/album/ostara

Лог проверки качества
foobar2000 1.4.2 / Замер динамического диапазона (DR) 1.1.1
Дата отчёта:  2021-02-27 00:47:01

--------------------------------------------------------------------------------
Анализ:   MOOP / Ostara
--------------------------------------------------------------------------------

DR         Пики         RMS           Продолжительность трека
--------------------------------------------------------------------------------
DR10      -0.10 дБ   -14.01 дБ     11:27 01-Manlayl - half completed / half started
DR9       -0.10 дБ   -13.10 дБ      7:40 02-#eule
DR9       -0.10 дБ   -13.68 дБ     11:31 03-Ostara
DR8       -0.10 дБ   -10.42 дБ      3:18 04-Papatte douce
--------------------------------------------------------------------------------

Количество треков: 4
Реальные значения DR: DR9

Частота:   44100 Гц
Каналов:   2
Разрядность:   24
Битрейт:   1662 кбит/с
Кодек:   FLAC
================================================================================
Приватный:
Нет (DHT включён)
Размер:
401.85 Мб (421,365,741 байт) » файлов: 11
Участники:
0 раздают, 0 качают (0 участников всего)
Внешние участники:
5 раздают, 2 качают (7 участников всего) [ Обновить ]
No seeders - write personal message to M0p94ok. Нет сидеров - пишите в личку M0p94ok.
19:36
40
Нет комментариев. Ваш будет первым!