Поиск

2019 Franck Tortiller - Ochestre Franck Tortiller (Shut Up'n Sing Yer Zappa) {Label MCO} [24-192]

2019 Franck Tortiller - Ochestre Franck Tortiller (Shut Up'n Sing Yer Zappa) {Label MCO} [24-192]
Стили:
Дата записи диска:
14 октября 2018
Место записи:
Espace des Arts de Rentilly
Дата издания диска:
3 мая 2019
Номер по каталогу:
MCO 07
Носитель:
WEB
Формат:
PCM
Тип рипа:
tracks
Контейнер:
FLAC (*.flac)
Количество каналов:
2.0
Разрядность/ЧД:
24/192
Битрейт аудио:
lossless
Время звучания:
01:02:03
Наличие сканов:
только обложка
Наличие водяных знаков:
нет
Страна-производитель диска (релиза):
France
Релизёр (источник):
M0p94ok

Треклист:

1. Brown Shoes Don't Make It  16:09
2. Montana  08:42
3. Mother People / Igor's Boogie  06:28
4. Joe's Garage  08:02
5. Florentine Pogen  11:07
6. Andy  11:35

Лог проверки качества
foobar2000 1.6.2 / Dynamic Range Meter 1.1.1
log date: 2021-05-05 20:12:31

--------------------------------------------------------------------------------
Analyzed: Franck Tortiller / Ochestre Franck Tortiller (Shut Up'n Sing Yer Zappa)
--------------------------------------------------------------------------------

DR         Peak         RMS     Duration Track
--------------------------------------------------------------------------------
DR10      -0.08 dB   -12.69 dB     16:09 01-Brown Shoes Don't Make It
DR9       -0.15 dB   -11.88 dB      8:42 02-Montana
DR11       0.00 dB   -14.09 dB      6:29 03-Mother People / Igor's Boogie
DR10      -0.30 dB   -13.22 dB      8:03 04-Joe's Garage
DR10      -0.04 dB   -13.49 dB     11:07 05-Florentine Pogen
DR9       -0.14 dB   -11.70 dB     11:35 06-Andy
--------------------------------------------------------------------------------

Number of tracks:  6
Official DR value: DR10

Samplerate:        192000 Hz
Channels:          2
Bits per sample:   24
Bitrate:           6021 kbps
Codec:             FLAC
================================================================================
Приватный:
Нет (DHT включён)
Размер:
2.52 Гб (2,707,524,940 байт) » файлов: 8
Участники:
5 раздают, 0 качают (5 участников всего)
Внешние участники:
--- [ Обновить ]
No seeders - write personal message to M0p94ok. Any questions - support@pro-jazz.com.
Нет сидеров - пишите в личку M0p94ok. Есть вопросы - support@pro-jazz.com
20:40
41
Нет комментариев. Ваш будет первым!