Вы используете незарегистрированную версию компонента "Вкладки"!

Поиск

1979 Chet Baker - At Onkel Pö's Carnegie Hall (2017) {Delta Music} [24-48]

1979 Chet Baker - At Onkel Pö's Carnegie Hall (2017) {Delta Music} [24-48]
Битрейт аудио:
lossless
Доп. инфо:

Формат записи/Источник записи: [TR24][OF]
Издание: Remastered
Год издания/переиздания диска: 1979/2017
Издатель (лейбл): Delta Music
Продолжительность: 01:39:38
Наличие сканов в содержимом раздачи: Нет

Контейнер: FLAC (*.flac)
Тип рипа: tracks
Разрядность: 24/48
Количество каналов: 2.0

Источник (релизер): HIGHRESAUDIO

 

Лог проверки качества
foobar2000 1.4.3 / Dynamic Range Meter 1.1.1
log date: 2021-02-20 07:08:57

--------------------------------------------------------------------------------
Analyzed: Chet Baker / At Onkel Pö's Carnegie Hall
--------------------------------------------------------------------------------

DR         Peak         RMS     Duration Track
--------------------------------------------------------------------------------
DR14      -0.49 dB   -17.93 dB     18:07 01-Love for Sale
DR17      -1.77 dB   -23.18 dB     13:27 02-You Can't Go Home Again
DR16      -0.50 dB   -19.03 dB     16:31 03-There'll Never Be Another You
DR16      -0.49 dB   -19.50 dB     27:51 04-Black Eyes
DR17      -0.49 dB   -20.47 dB     23:44 05-Broken Wing
--------------------------------------------------------------------------------

Number of tracks:  5
Official DR value: DR16

Samplerate:        48000 Hz
Channels:          2
Bits per sample:   24
Bitrate:           1589 kbps
Codec:             FLAC
================================================================================
Any questions - support@pro-jazz.com. Есть вопросы - support@pro-jazz.com
17:00
98
Нет комментариев. Ваш будет первым!