Поиск

2014 VA - Master Superior Audiophile {Master Music MASA 51482} [DST64 ISO]

2014 VA - Master Superior Audiophile {Master Music MASA 51482} [DST64 ISO]
Битрейт аудио:
lossless
Треклист:

01. Iraklio - Renaud Garcia-Fons
02. Compliments - Jungle boldie
03. Blossom - Johannes Tonio Kreusch
04. The Wonder Of You - Lisa Dillan
05. Sommerflort - Arild Andersen
06. My Foolish Heart - Eddie Higgins Quartet
07. Imprints - M.Vahdat/Mighty S.McClain
08. Lamento Borincano - John Di Martino's R.Trio
09. Sangen Som Song I Oss Alle - Kari Bremnes
10. When You Wish Upon A Star - Ken Peplowski Quartet
11. Fyrivarsl - Lynni Treekrem
12. Et Lidet Barn Saa Lysteligt - Anne-Lise Berntsen/NilsAsh.
13. Vivaldi: 4 Searsons Cto. No. III-Presto - Terje Tonnesen
14. D'vorak:Violin Cto:Allegro Ma Non Troppo-Quasi Moderato - Ferschtman/Venzago

Доп. инфо:

Формат записи/Источник записи: [SACD-R][OF]
Наличие водяных знаков: Нет
Издание: Sampler
Год издания диска: 2014
Издатель (лейбл): Master Music - [MASA 51482]
Продолжительность: 01:09:07
Наличие сканов в содержимом раздачи: Только обложка альбома

Контейнер: ISO (*.iso)
Тип рипа: image
Разрядность: 64(2,8 MHz/1 Bit)
Формат: DST64
Количество каналов: 2.0

Источник (релизер): HRAudio.net

Лог проверки качества
foobar2000 1.6.4 / Замер динамического диапазона (DR) 1.1.1
Дата отчёта:  2021-02-21 21:36:41

--------------------------------------------------------------------------------
Анализ:   ? / ?
--------------------------------------------------------------------------------

DR         Пики         RMS           Продолжительность трека
--------------------------------------------------------------------------------
DR8       -6.41 дБ   -16.43 дБ      3:49 01-Master Superior Audiophile 2014
DR14      -6.13 дБ   -24.66 дБ      3:34 02-Master Superior Audiophile 2014
DR11      -6.07 дБ   -20.09 дБ      2:35 03-Master Superior Audiophile 2014
DR10      -6.38 дБ   -18.79 дБ      3:57 04-Master Superior Audiophile 2014
DR12      -5.78 дБ   -20.79 дБ      3:11 05-Master Superior Audiophile 2014
DR8       -6.39 дБ   -17.14 дБ      5:26 06-Master Superior Audiophile 2014
DR11      -5.98 дБ   -21.09 дБ      6:46 07-Master Superior Audiophile 2014
DR7       -6.26 дБ   -16.06 дБ      6:12 08-Master Superior Audiophile 2014
DR9       -6.06 дБ   -19.57 дБ      4:11 09-Master Superior Audiophile 2014
DR9       -6.85 дБ   -19.61 дБ      5:23 10-Master Superior Audiophile 2014
DR13      -6.70 дБ   -23.57 дБ      4:27 11-Master Superior Audiophile 2014
DR10      -6.02 дБ   -19.32 дБ      3:58 12-Master Superior Audiophile 2014
DR10      -6.23 дБ   -21.33 дБ      4:08 13-Master Superior Audiophile 2014
DR15      -6.08 дБ   -27.30 дБ     11:31 14-Master Superior Audiophile 2014
--------------------------------------------------------------------------------

Количество треков: 14
Реальные значения DR: DR10

Частота:  2822400 Гц / Частота PCM: 352800 Гц
Каналов:  2
Разрядность:   1
Битрейт:  5645 кбит/с
Кодек:   DST64
================================================================================
Приватный:
Нет (DHT включён)
Размер:
1.10 Гб (1,179,098,819 байт) » файлов: 6
Участники:
0 раздают, 0 качают (0 участников всего)
Внешние участники:
21 раздают, 7 качают (28 участников всего) [ Обновить ]
No seeders - write personal message to M0p94ok. Нет сидеров - пишите в личку M0p94ok.
13:00
47
Нет комментариев. Ваш будет первым!