Поиск

2013 VA - Master Superior Audiophile {Master Music} [DST64 ISO]

2013 VA - Master Superior Audiophile {Master Music} [DST64 ISO]
Стили:
Номер по каталогу:
MASA 51382
Битрейт аудио:
lossless
Доп. инфо:

Формат записи/Источник записи: [SACD-R][OF]
Наличие водяных знаков: Нет
Издание: Sampler
Год издания диска: 2013
Продолжительность: 01:04:19
Наличие сканов в содержимом раздачи: Только обложка альбома

Контейнер: ISO (*.iso)
Тип рипа: image
Разрядность: 64(2,8 MHz/1 Bit)
Формат: DST64
Количество каналов: 2.0

Источник (релизер): HRAudio.net

Лог проверки качества
foobar2000 1.6.4 / Замер динамического диапазона (DR) 1.1.1
Дата отчёта:  2021-02-21 19:43:48

--------------------------------------------------------------------------------
Анализ:   ? / ?
--------------------------------------------------------------------------------

DR         Пики         RMS           Продолжительность трека
--------------------------------------------------------------------------------
DR13      -6.26 дБ   -23.85 дБ      3:26 01-Master Superior Audiophile 2013
DR11      -7.62 дБ   -23.02 дБ      4:03 02-Master Superior Audiophile 2013
DR9       -6.92 дБ   -18.43 дБ      3:26 03-Master Superior Audiophile 2013
DR9       -9.60 дБ   -22.68 дБ      4:46 04-Master Superior Audiophile 2013
DR10      -8.49 дБ   -22.30 дБ      5:23 05-Master Superior Audiophile 2013
DR10     -10.77 дБ   -23.40 дБ      3:10 06-Master Superior Audiophile 2013
DR11      -9.61 дБ   -22.78 дБ      4:22 07-Master Superior Audiophile 2013
DR6      -12.02 дБ   -19.75 дБ      4:40 08-Master Superior Audiophile 2013
DR7      -12.44 дБ   -21.23 дБ      7:30 09-Master Superior Audiophile 2013
DR8      -10.25 дБ   -23.78 дБ      4:27 10-Master Superior Audiophile 2013
DR8      -11.05 дБ   -21.50 дБ      4:10 11-Master Superior Audiophile 2013
DR11      -8.26 дБ   -24.15 дБ      4:33 12-Master Superior Audiophile 2013
DR12     -10.35 дБ   -24.16 дБ      4:40 13-Master Superior Audiophile 2013
DR13      -9.26 дБ   -28.45 дБ      5:43 14-Master Superior Audiophile 2013
--------------------------------------------------------------------------------

Количество треков: 14
Реальные значения DR: DR10

Частота:  2822400 Гц / Частота PCM: 352800 Гц
Каналов:  2
Разрядность:   1
Битрейт:  5645 кбит/с
Кодек:   DST64
================================================================================
No seeders - write personal message to M0p94ok. Any questions - support@pro-jazz.com.
Нет сидеров - пишите в личку M0p94ok. Есть вопросы - support@pro-jazz.com
20:20
92
Нет комментариев. Ваш будет первым!