Поиск

2018 Aaron Goldberg - At the Edge of the World {Sunnyside} [24-44,1]

2018 Aaron Goldberg - At the Edge of the World {Sunnyside} [24-44,1]
Дата записи диска:
16 сентября - 21 сентября 2016
Место записи:
Systems Two, Brooklyn, NY
Дата издания диска:
16 ноября 2018
Издатель (лейбл):
Номер по каталогу:
SSC 1521
Носитель:
WEB
Формат:
PCM
Тип рипа:
tracks
Контейнер:
FLAC (*.flac)
Количество каналов:
2.0
Разрядность/ЧД:
24/44,1
Битрейт аудио:
lossless
Время звучания:
00:45:59
Наличие сканов:
только обложка
Страна-производитель диска (релиза):
USA
Релизёр (источник):
M0p94ok
Лог проверки качества
foobar2000 1.3.16 / Dynamic Range Meter 1.1.1
log date: 2019-06-05 18:03:00

--------------------------------------------------------------------------------
Analyzed: Aaron Goldberg / At the Edge of the World
--------------------------------------------------------------------------------

DR         Peak         RMS     Duration Track
--------------------------------------------------------------------------------
DR11      -0.71 dB   -14.02 dB      5:48 01-Poinciana
DR11      -0.71 dB   -15.40 dB      4:51 02-Luaty
DR10      -0.70 dB   -13.46 dB      5:21 03-Isn't This My Sound Around Me
DR14      -0.71 dB   -18.92 dB      8:23 04-When You Are Near
DR11      -0.71 dB   -13.44 dB      5:25 05-Effendi
DR12      -0.71 dB   -17.59 dB      4:26 06-En La Orilla Del Mundo
DR12      -0.71 dB   -15.68 dB      5:35 07-Black Orpheus (Manha De Carnaval)
DR11      -0.71 dB   -13.97 dB      6:15 08-Tokyo Dream
--------------------------------------------------------------------------------

Number of tracks:  8
Official DR value: DR11

Samplerate:        44100 Hz
Channels:          2
Bits per sample:   24
Bitrate:           1492 kbps
Codec:             FLAC
================================================================================
No seeders - write personal message to M0p94ok. Any questions - support@pro-jazz.com.
Нет сидеров - пишите в личку M0p94ok. Есть вопросы - support@pro-jazz.com
16:29
80
Нет комментариев. Ваш будет первым!