Поиск

2012 VA - Master Superior Audiophile {Master Music} [DST64 ISO]

2012 VA - Master Superior Audiophile {Master Music} [DST64 ISO]
Стили:
Битрейт аудио:
lossless
Треклист:

01. Southward Bound - B. B. Driftwood
02. Memories - Lisa Dillan
03. Mother - Chie Ayado
04. Crying InThe Rain - Inger Marie Gundersen
05. Baby Don't You Break My Heart Slow - Vonda Shepard
06. Vivaldi: Allergo - Philharmonische Geigen Berlin
07. Here Comes The Sun - Nicki Parrott
08. Oh, Sister - Lisa Wahlandt
09. Carry Me Back - The lain ad venture
10. Love Me With All Of Your Heart - Chie Ayado
11. Goin' Down The Road Feeling Bad - Eric Bibb
12. Cherry Pink & Apple Blossam White - Nicki Parrott
13. You Don't Have To Say You Love Me - Lisa Dillan
14. It's All Good - Dean Peer

Доп. инфо:

Формат записи/Источник записи: [SACD-R][OF]
Наличие водяных знаков: Нет
Издание: Sampler
Год издания диска: 2012
Издатель (лейбл): Master Music - [MASA 51282]
Продолжительность: 00:54:34
Наличие сканов в содержимом раздачи: Да (сканы)

Контейнер: ISO (*.iso)
Тип рипа: image
Разрядность: 64(2,8 MHz/1 Bit)
Формат: DST64
Количество каналов: 2.0

Источник (релизер): HRAudio.net

Лог проверки качества
foobar2000 1.6.4 / Замер динамического диапазона (DR) 1.1.1
Дата отчёта:  2021-02-21 16:41:41

--------------------------------------------------------------------------------
Анализ:   ? / ?
--------------------------------------------------------------------------------

DR         Пики         RMS           Продолжительность трека
--------------------------------------------------------------------------------
DR13      -4.42 дБ   -19.15 дБ      3:43 01-Master Superior Audiophile 2012
DR11      -5.13 дБ   -18.68 дБ      3:42 02-Master Superior Audiophile 2012
DR12      -5.35 дБ   -20.95 дБ      5:10 03-Master Superior Audiophile 2012
DR11      -5.12 дБ   -18.12 дБ      4:55 04-Master Superior Audiophile 2012
DR12      -5.47 дБ   -20.03 дБ      4:26 05-Master Superior Audiophile 2012
DR15      -7.25 дБ   -23.51 дБ      4:28 06-Master Superior Audiophile 2012
DR10      -8.99 дБ   -20.63 дБ      3:12 07-Master Superior Audiophile 2012
DR12      -5.32 дБ   -20.23 дБ      3:44 08-Master Superior Audiophile 2012
DR13      -6.06 дБ   -20.99 дБ      3:52 09-Master Superior Audiophile 2012
DR10      -6.29 дБ   -18.13 дБ      3:28 10-Master Superior Audiophile 2012
DR13      -5.67 дБ   -20.64 дБ      3:06 11-Master Superior Audiophile 2012
DR10      -9.00 дБ   -20.22 дБ      3:33 12-Master Superior Audiophile 2012
DR11      -6.88 дБ   -20.67 дБ      2:47 13-Master Superior Audiophile 2012
DR15      -4.76 дБ   -22.60 дБ      4:28 14-Master Superior Audiophile 2012
--------------------------------------------------------------------------------

Количество треков: 14
Реальные значения DR: DR12

Частота:  2822400 Гц / Частота PCM: 352800 Гц
Каналов:  2
Разрядность:   1
Битрейт:  5645 кбит/с
Кодек:   DST64
================================================================================
Приватный:
Нет (DHT включён)
Размер:
948.92 Мб (995,011,080 байт) » файлов: 9
Участники:
2 раздают, 0 качают (2 участников всего)
Внешние участники:
21 раздают, 7 качают (28 участников всего) [ Обновить ]
No seeders - write personal message to M0p94ok. Нет сидеров - пишите в личку M0p94ok.
11:54
43
Нет комментариев. Ваш будет первым!