Поиск

1956 Sonny Rollins - Worktime (2021) {Craft} [24-192]

1956 Sonny Rollins - Worktime (2021) {Craft} [24-192]
Стили:
Дата записи диска:
2 декабря 1955
Место записи:
Rudy Van Gelder Studio, Englewood Cliffs, New Jersey, USA
Носитель:
WEB
Формат:
PCM
Тип рипа:
tracks
Контейнер:
FLAC (*.flac)
Количество каналов:
2.0
Разрядность/ЧД:
24/192
Битрейт аудио:
lossless
Время звучания:
00:32:53
Наличие сканов:
только обложка

01 - There's No Business Like Show Business 06:20
02 - Paradox 04:58
03 - Raincheck 06:01
04 - There Are Such Things 09:30
05 - It's All Right With Me 06:04

Состав:
  • Sonny Rollins – tenor saxophone
  • Ray Bryant – piano
  • George Morrow – bass
  • Max Roach – drums
Лог проверки качества
foobar2000 1.4.3 / Dynamic Range Meter 1.1.1
log date: 2021-10-15 21:14:58
--------------------------------------------------------------------------------
Analyzed: Sonny Rollins / Work Time
--------------------------------------------------------------------------------
DR         Peak         RMS     Duration Track
--------------------------------------------------------------------------------
DR12      -0.50 dB   -14.98 dB      6:20 01-There's No Business Like Show Business
DR12      -1.34 dB   -15.36 dB      4:59 02-Paradox
DR13      -0.50 dB   -15.60 dB      6:01 03-Raincheck
DR14      -1.87 dB   -18.62 dB      9:31 04-There Are Such Things
DR12      -0.50 dB   -14.46 dB      6:04 05-It's All Right With Me
--------------------------------------------------------------------------------
Number of tracks:  5
Official DR value: DR13
Samplerate:        192000 Hz
Channels:          2
Bits per sample:   24
Bitrate:           3820 kbps
Codec:             FLAC
================================================================================
Приватный:
Нет (DHT включён)
Размер:
884.38 Мб (927,336,774 байт) » файлов: 11
Участники:
0 раздают, 0 качают (0 участников всего)
Внешние участники:
3 раздают, 1 качают (4 участников всего) [ Обновить ]
16:51
379
Нет комментариев. Ваш будет первым!