Поиск

1996 Eva Cassidy - Live At Blues Alley (25th Anniversary Edition) {Blix Street} [24-44.1]

1996 Eva Cassidy - Live At Blues Alley (25th Anniversary Edition) {Blix Street} [24-44.1]
Дата записи диска:
2 января - 3 января 1996
Место записи:
Blues Valley, Chris Biondo's Studio
Носитель:
WEB
Формат:
PCM
Тип рипа:
tracks
Контейнер:
FLAC (*.flac)
Количество каналов:
2.0
Разрядность/ЧД:
24/44,1
Битрейт аудио:
lossless
Время звучания:
00:54:34
Наличие сканов:
только обложка

01 - Cheek To Cheek 04:08
02 - Stormy Monday 05:51
03 - Bridge Over Troubled Water 05:31
04 - Fine And Mellow 04:03
05 - People Get Ready 03:34
06 - Blue Skies
07 - Tall Trees In Georgia 04:10
08 - Fields Of Gold 04:59
09 - Autumn Leaves 04:50
10 - Honeysuckle Rose 03:08
11 - Take Me To The River 04:08
12 - What A Wonderful World 05:36
13 - Oh, Had I A Golden Thread 04:52

Состав:
  • Eva Cassidy — vocals, acoustic guitar, electric guitar
  • Chris Biondo — bass
  • Hilton Felton — Hammond organ
  • Keith Grimes — electric guitar
  • Raice McLeod — drums
  • Lenny Williams — piano
Лог проверки качества
foobar2000 1.4.3 / Dynamic Range Meter 1.1.1
log date: 2021-10-15 21:26:58
--------------------------------------------------------------------------------
Analyzed: Eva Cassidy / Live At Blues Alley (25th Anniversary Edition)
--------------------------------------------------------------------------------
DR         Peak         RMS     Duration Track
--------------------------------------------------------------------------------
DR7       -0.14 dB    -9.26 dB      3:39 01-Cheek To Cheek (Live At Blues Alley)  (Audience Muted)
DR7       -0.14 dB   -10.37 dB      5:43 02-Stormy Monday (Live At Blues Alley)  (Audience Muted)
DR6       -0.14 dB   -10.66 dB      5:26 03-Bridge Over Troubled Water (Live At Blues Alley)  (Audience Muted)
DR8       -0.14 dB   -11.15 dB      3:57 04-Fine And Mellow (Live At Blues Alley)  (Audience Muted)
DR8       -0.14 dB   -11.97 dB      3:27 05-People Get Ready (Live At Blues Alley)  (Audience Muted)
DR7       -0.14 dB    -9.62 dB      2:32 06-Blue Skies (Live At Blues Alley)  (Audience Muted)
DR10      -0.14 dB   -14.05 dB      3:36 07-Tall Trees In Georgia (Live At Blues Alley)  (Audience Muted)
DR10      -0.14 dB   -13.14 dB      4:49 08-Fields Of Gold (Live At Blues Alley)  (Audience Muted)
DR10      -0.14 dB   -13.99 dB      4:41 09-Autumn Leaves (Live At Blues Alley)  (Audience Muted)
DR8       -0.14 dB   -11.38 dB      3:05 10-Honeysuckle Rose (Live At Blues Alley)  (Audience Muted)
DR6       -0.14 dB    -7.50 dB      3:49 11-Take Me To The River (Live At Blues Alley)  (Audience Muted)
DR8       -0.14 dB   -10.73 dB      5:05 12-What A Wonderful World (Live At Blues Alley)  (Audience Muted)
DR6       -1.02 dB   -10.27 dB      4:53 13-Oh, Had I A Golden Thread (Live At Blues Alley)  (2021 Master)
--------------------------------------------------------------------------------
Number of tracks:  13
Official DR value: DR8
Samplerate:        44100 Hz
Channels:          2
Bits per sample:   24
Bitrate:           1567 kbps
Codec:             FLAC
================================================================================
Приватный:
Нет (DHT включён)
Размер:
619.40 Мб (649,489,463 байт) » файлов: 19
Участники:
0 раздают, 1 качают (1 участников всего)
Внешние участники:
--- [ Обновить ]
08:48
463
Нет комментариев. Ваш будет первым!