Поиск

1956 Red Garland - A Garland Of Red (2021) {Craft} [24-192]

1956 Red Garland - A Garland Of Red (2021) {Craft} [24-192]
Дата записи диска:
17 августа 1956
Место записи:
Rudy Van Gelder Studio, Englewood Cliffs, New Jersey, USA
Носитель:
WEB
Формат:
PCM
Тип рипа:
tracks
Контейнер:
FLAC (*.flac)
Количество каналов:
2.0
Разрядность/ЧД:
24/192
Битрейт аудио:
lossless
Время звучания:
00:41:50
Наличие сканов:
только обложка

01 - A Foggy Day 04:50
02 - My Romance 06:51
03 - What Is This Thing Called Love 04:52
04 - Makin' Whoopee 04:15
05 - September In The Rain 04:47
06 - Little Girl Blue 05:06
07 - Constellation 03:31
08 - Blue Red 07:38

Состав:
Лог проверки качества
foobar2000 1.4.3 / Dynamic Range Meter 1.1.1
log date: 2021-10-16 16:38:40
--------------------------------------------------------------------------------
Analyzed: Red Garland / A Garland Of Red
--------------------------------------------------------------------------------
DR         Peak         RMS     Duration Track
--------------------------------------------------------------------------------
DR11      -0.22 dB   -13.64 dB      4:51 01-A Foggy Day
DR14      -0.58 dB   -17.28 dB      6:51 02-My Romance
DR10      -0.22 dB   -12.77 dB      4:53 03-What Is This Thing Called Love
DR12      -0.22 dB   -14.80 dB      4:15 04-Makin' Whoopee
DR11      -0.22 dB   -14.14 dB      4:48 05-September In The Rain
DR13      -0.22 dB   -15.98 dB      5:07 06-Little Girl Blue
DR9       -0.22 dB   -12.42 dB      3:32 07-Constellation
DR12      -0.22 dB   -15.36 dB      7:38 08-Blue Red
--------------------------------------------------------------------------------
Number of tracks:  8
Official DR value: DR11
Samplerate:        192000 Hz
Channels:          2
Bits per sample:   24
Bitrate:           3645 kbps
Codec:             FLAC
================================================================================
Скачивание доступно после регистрации!!
Приватный:
Нет (DHT включён)
Размер:
1.07 Гб (1,153,053,894 байт) » файлов: 14
Участники:
0 раздают, 0 качают (0 участников всего)
Внешние участники:
--- [ Обновить ]
09:52
372
Нет комментариев. Ваш будет первым!