Поиск

2021 Botticelli Baby - Saft {Unique} [24-48]

2021 Botticelli Baby - Saft {Unique} [24-48]
Стили:
Дата издания диска:
12 февраля 2021
Носитель:
WEB
Формат:
PCM
Тип рипа:
tracks
Контейнер:
FLAC (*.flac)
Количество каналов:
2.0
Разрядность/ЧД:
24/48
Битрейт аудио:
lossless
Время звучания:
00:42:21
Наличие сканов:
только обложка

Треклист:

01. Prelude  00:52
02. The Inner Hulk  03:58
03. Joy Passed By  04:28
04. Kiss Me Till I Die  03:00
05. Vagabond in a Dandy Suit  03:35
06. Follow Me  04:28
07. Yes  04:46
08. Plant Pot  02:58
09. Crash Test Dummy  04:16
10. 01: 30  02:06
11. New Year Chez les Vikings  03:23
12. Ballerspring  04:26

Лог проверки качества
foobar2000 1.4.2 / Dynamic Range Meter 1.1.1
log date: 2021-06-18 11:42:43
--------------------------------------------------------------------------------
Analyzed: Botticelli Baby / Saft
--------------------------------------------------------------------------------
DR         Peak         RMS     Duration Track
--------------------------------------------------------------------------------
DR11      -5.75 dB   -18.34 dB      0:52 01-Prelude
DR7       -1.02 dB    -9.97 dB      3:58 02-The Inner Hulk
DR6       -1.02 dB    -7.96 dB      4:29 03-Joy Passed By
DR6       -1.02 dB    -8.42 dB      3:01 04-Kiss Me Till I Die
DR5       -1.02 dB    -8.56 dB      3:36 05-Vagabond in a Dandy Suit
DR6       -1.02 dB    -8.86 dB      4:28 06-Follow Me
DR6       -1.02 dB   -10.69 dB      4:47 07-Yes
DR6       -1.00 dB    -8.82 dB      2:58 08-Plant Pot
DR6       -1.02 dB    -8.46 dB      4:16 09-Crash Test Dummy
DR6       -1.02 dB    -7.91 dB      2:06 10-01: 30
DR6       -1.00 dB    -9.42 dB      3:24 11-New Year Chez les Vikings
DR6       -1.02 dB    -9.16 dB      4:26 12-Ballerspring
--------------------------------------------------------------------------------
Number of tracks:  12
Official DR value: DR6
Samplerate:        48000 Hz
Channels:          2
Bits per sample:   24
Bitrate:           1622 kbps
Codec:             FLAC
================================================================================
21:21
412
Нет комментариев. Ваш будет первым!