Поиск

2021 Norah Jones - I Dream Of Christmas (Deluxe) {Blue Note} [24-96]

2021 Norah Jones - I Dream Of Christmas (Deluxe) {Blue Note} [24-96]
Стили:
Дата издания диска:
14 октября 2021
Издатель (лейбл):
Носитель:
WEB
Формат:
PCM
Тип рипа:
tracks
Контейнер:
FLAC (*.flac)
Количество каналов:
2.0
Разрядность/ЧД:
24/96
Битрейт аудио:
lossless
Время звучания:
01:21:31
Наличие сканов:
только обложка

01. Christmas Calling (Jolly Jones) (3:20)
02. Christmas Don't Be Late (2:40)
03. Christmas Glow (2:45)
04. White Christmas (3:05)
05. Christmastime (4:00)
06. Blue Christmas (3:25)
07. It's Only Christmas Once A Year (2:04)
08. You're Not Alone (3:52)
09. Winter Wonderland (3:33)
10. A Holiday With You (2:40)
11. Run Rudolph Run (3:12)
12. Christmas Time Is Here (3:45)
13. What Are You Doing New Year's Eve? (4:04)
14. Last Month Of The Year (2:52)
15. I'll Be Home For Christmas (4:11)
16. The Christmas Waltz (3:18)
17. O Holy Night (2:19)
18. I Dream Of Christmas (3:24)
19. Have Yourself a Merry Little Christmas (4:16)
20. Christmas In My Soul / Christmastime (4:49)
21. Run Rudolph Run (3:16)
22. Blue Christmas (3:47)
23. You're Not Alone (3:38)
24. Christmas Calling (Jolly Jones) (3:15)

Состав:
  • Alex DeTurk     Mastering
  • Jens Jungkurth     Engineer, Mixing
  • Leon Michels     Composer, Engineer, Producer
  • Russ Pahl     Engineer
  • Drums – Brian Blade
  • Electric Bass – Nick Movshon, Tony Scherr
  • Piano, Vocals – Norah Jones
  • Synth,  Flute, Glockenspiel, Percussion, Saxophone – Leon Michels
  • Trombone – Raymond Mason
  • Trumpet – Dave Guy
  • Cello – Marika Hughes
  • Pedal Steel Guitar – Russ Pahl
Лог проверки качества
foobar2000 1.5.5 / Замер динамического диапазона (DR) 1.1.1
Дата отчёта:  2022-10-24 12:38:55
--------------------------------------------------------------------------------
Анализ:   Norah Jones / I Dream Of Christmas (Deluxe)
--------------------------------------------------------------------------------
DR         Пики         RMS           Продолжительность трека
--------------------------------------------------------------------------------
DR6       -0.70 дБ    -8.72 дБ      3:20 01-Christmas Calling (Jolly Jones)
DR6       -0.70 дБ    -9.79 дБ      2:40 02-Christmas Don't Be Late
DR6       -0.70 дБ    -8.32 дБ      2:45 03-Christmas Glow
DR7       -0.70 дБ   -10.79 дБ      3:05 04-White Christmas
DR6       -0.70 дБ    -8.72 дБ      4:00 05-Christmastime
DR8       -0.70 дБ   -11.58 дБ      3:25 06-Blue Christmas
DR9       -0.70 дБ   -12.75 дБ      2:04 07-It's Only Christmas Once A Year
DR6       -0.70 дБ    -9.09 дБ      3:52 08-You're Not Alone
DR7       -0.70 дБ    -9.45 дБ      3:33 09-Winter Wonderland
DR6       -0.70 дБ    -9.64 дБ      2:40 10-A Holiday With You
DR7       -0.70 дБ    -8.61 дБ      3:12 11-Run Rudolph Run
DR7       -0.70 дБ   -10.23 дБ      3:45 12-Christmas Time Is Here
DR8       -0.70 дБ   -11.35 дБ      4:04 13-What Are You Doing New Year's Eve?
DR7       -0.70 дБ    -8.51 дБ      2:52 14-Last Month Of The Year
DR7       -0.70 дБ   -10.30 дБ      4:11 15-I'll Be Home For Christmas
DR7       -0.70 дБ   -10.47 дБ      3:18 16-The Christmas Waltz
DR7       -0.70 дБ   -10.38 дБ      2:19 17-O Holy Night
DR6       -0.70 дБ    -8.00 дБ      3:24 18-I Dream Of Christmas
DR7       -0.70 дБ   -10.42 дБ      4:16 19-Have Yourself a Merry Little Christmas
DR7       -0.70 дБ   -10.02 дБ      4:49 20-Christmas In My Soul / Christmastime (Live At The Empire State Building)
DR8       -0.70 дБ    -9.57 дБ      3:16 21-Run Rudolph Run (Live At The Empire State Building)
DR7       -0.70 дБ    -9.54 дБ      3:47 22-Blue Christmas (Live At The Empire State Building)
DR7       -0.70 дБ    -9.75 дБ      3:38 23-You're Not Alone (Live At The Empire State Building)
DR7       -0.70 дБ    -9.48 дБ      3:15 24-Christmas Calling (Jolly Jones) (Live At The Empire State Building)
--------------------------------------------------------------------------------
Количество треков: 24
Реальные значения DR: DR7
Частота:   96000 Гц
Каналов:   2
Разрядность:   24
Битрейт:   2720 кбит/с
Кодек:   FLAC
================================================================================
16:07
423
Нет комментариев. Ваш будет первым!