Поиск

2018 Peter Zummo - Frame Loop {Foom} [24-48]

2018 Peter Zummo - Frame Loop {Foom} [24-48]
Стили:
Дата издания диска:
2 марта 2018
Носитель:
WEB
Формат:
PCM
Тип рипа:
tracks
Контейнер:
FLAC (*.flac)
Количество каналов:
2.0
Разрядность/ЧД:
24/48
Битрейт аудио:
lossless
Время звучания:
00:39:01
Наличие сканов:
только обложка

Треклист:

1.Song II: Left; On The Beat—Variations 10:41
2.Song II: Right; Off The Beat 07:08
3.Song I: Extract 00:56
4.Song II: Left; On The Beat 10:20
5.Song II: Right; Off The Beat—Negative Ions 09:54

Состав:
  • Peter Zummo: trombone; euphonium
  • Arthur Russell: amplified cello
  • Bill Ruyle: marimba
  • Mustafa Ahmed: congas
Лог проверки качества
foobar2000 1.6.2 / Dynamic Range Meter 1.1.1
log date: 2021-10-15 20:21:12
--------------------------------------------------------------------------------
Analyzed: Peter Zummo / Frame Loop
--------------------------------------------------------------------------------
DR         Peak         RMS     Duration Track
--------------------------------------------------------------------------------
DR9        0.00 dB   -10.16 dB     10:20 04-Song II: Left; On The Beat
DR11       0.00 dB   -14.14 dB      9:55 05-Song II: Right; Off The Beat—Negative Ions
--------------------------------------------------------------------------------
Number of tracks:  2
Official DR value: DR10
Samplerate:        44100 Hz
Channels:          2
Bits per sample:   24
Bitrate:           1390 kbps
Codec:             FLAC
================================================================================
--------------------------------------------------------------------------------
Analyzed: Peter Zummo / Frame Loop
--------------------------------------------------------------------------------
DR         Peak         RMS     Duration Track
--------------------------------------------------------------------------------
DR9       -0.51 dB   -12.78 dB     10:41 01-Song II: Left; On The Beat—Variations
DR9       -3.01 dB   -14.77 dB      7:09 02-Song II: Right; Off The Beat
DR11      -3.01 dB   -15.89 dB      0:56 03-Song I: Extract
--------------------------------------------------------------------------------
Number of tracks:  3
Official DR value: DR10
Samplerate:        48000 Hz
Channels:          2
Bits per sample:   24
Bitrate:           1543 kbps
Codec:             FLAC
================================================================================
По всем вопросам пишите личное сообщение пользователю M0p94ok.
19:09
142
Нет комментариев. Ваш будет первым!