Поиск

1956 Sonny Rollins & Thad Jones And His Ensemble - Sonny Rollins Plays (2020) {Period} [24-44,1]

1956 Sonny Rollins & Thad Jones And His Ensemble - Sonny Rollins Plays (2020) {Period} [24-44,1]
Стили:
Треклист:

01 - Sonny Rollins - Sonnymoon for Two 08:56
02 - Sonny Rollins - Like Someone in Love 04:52
03 - Sonny Rollins - Theme from Tchaikovsky's Symphony Pathetique 05:51
04 - Thad Jones - Lust for Life 04:10
05 - Thad Jones - I Got It Thad 06:31
06 - Thad Jones - Ballad Medley: Flamingo / If You Were Mine / I'm Thru with Love / Love Walked In 07:20

Доп. инфо:

Формат записи/Источник записи: [TR24][OF]
Издание: Remastered
Год издания/переиздания диска: 1956/2020
Издатель (лейбл): Period Records
Продолжительность: 00:37:38
Наличие сканов в содержимом раздачи: Нет

Контейнер: FLAC (*.flac)
Тип рипа: tracks
Разрядность: 24/44,1
Количество каналов: 2.0

Источник (релизер): HIGHRESAUDIO

Лог проверки качества
foobar2000 1.4.3 / Dynamic Range Meter 1.1.1
log date: 2020-01-28 14:25:27

--------------------------------------------------------------------------------
Analyzed:  Thad Jones And His Ensemble / Sonny Rollins Plays / Thad Jones And His Ensemble (1-3)
          Sonny Rollins Quintet / Sonny Rollins Plays / Thad Jones And His Ensemble (4-6)
--------------------------------------------------------------------------------

DR         Peak         RMS     Duration Track
--------------------------------------------------------------------------------
DR10      -1.20 dB   -12.61 dB      4:10 04-Lust for Life
DR11      -1.20 dB   -13.63 dB      6:31 05-I Got It Thad
DR10      -1.20 dB   -15.03 dB      7:20 06-Ballad Medley
DR11      -1.20 dB   -13.84 dB      8:56 01-Sonnymoon for Two
DR10      -1.20 dB   -12.91 dB      4:52 02-Like Someone in Love
DR12      -1.21 dB   -15.57 dB      5:51 03-Theme from Tchaikovsky's Symphony Pathetique
--------------------------------------------------------------------------------

Number of tracks:  6
Official DR value: DR11

Samplerate:        44100 Hz
Channels:          2
Bits per sample:   24
Bitrate:           1497 kbps
Codec:             FLAC
================================================================================
Приватный:
Нет (DHT включён)
Размер:
419.30 Мб (439,669,933 байт) » файлов: 10
Участники:
14 раздают, 0 качают (14 участников всего)
Внешние участники:
8 раздают, 2 качают (10 участников всего) [ Обновить ]
Скорость:
0/c 4.96 Кб/c
Есть вопросы - пишите личное сообщение пользователю M0p94ok.
11:34
22
Нет комментариев. Ваш будет первым!