Поиск

2018 Baiju Bhatt & Red Sun - Eastern Sonata {QFTF 107} [24-44,1]

2018 Baiju Bhatt & Red Sun - Eastern Sonata {QFTF 107} [24-44,1]
Место записи:
Studio De La Fonderie, Studio Artefax
Дата издания диска:
14 декабря 2018
Номер по каталогу:
QFTF 107
Носитель:
WEB
Формат:
PCM
Тип рипа:
tracks
Контейнер:
FLAC (*.flac)
Количество каналов:
2.0
Разрядность/ЧД:
24/44,1
Формат записи/Источник записи:
[TR24][OF]
Время звучания:
01:03:58
Наличие сканов:
только обложка
Наличие водяных знаков:
нет
Релизёр (источник):
M0p94ok
Треклист:

01. Pari Shokogun  07:03
02. Kintsukuroi - Prabhu Edouard  06:46
03. The Joyful Warrior - Nguyên Lê, Prabhu Edouard  08:40
04. Cosmopolis - Prabhu Edouard, Amine Mraihi  08:27
05. Eastern Sonata  04:53
06. Ode to the White Ape - Prabhu Edouard  06:41
07. Upper Welsch Side - Prabhu Edouard, Jay Gandhi  05:54
08. Opium  04:18
09. Land of Wonders  01:03
10. Whirlpool 03:03
11. Song for Little Shai - Prabhu Edouard, Krishna Mohan Bhatt  07:10

Доп. инфо:
https://www.highresaudio.com/en/album/view/sw3jrn/baiju-bhatt-red-sun-eastern-sonata
Лог проверки качества
foobar2000 1.4.3 / Dynamic Range Meter 1.1.1
log date: 2020-03-13 10:18:21

--------------------------------------------------------------------------------
Analyzed: Baiju Bhatt / Eastern Sonata
--------------------------------------------------------------------------------

DR         Peak         RMS     Duration Track
--------------------------------------------------------------------------------
DR9       -0.23 dB   -10.83 dB      7:04 01-Pari Shokogun
DR9       -0.29 dB   -11.54 dB      6:46 02-Kintsukuroi
DR8       -0.20 dB   -10.09 dB      8:40 03-The Joyful Warrior
DR8       -0.21 dB   -10.79 dB      8:27 04-Cosmopolis
DR12      -0.53 dB   -16.68 dB      4:54 05-Eastern Sonata
DR8       -0.22 dB   -10.35 dB      6:42 06-Ode to the White Ape
DR10      -0.45 dB   -12.20 dB      5:54 07-Upper Welsch Side
DR14      -0.43 dB   -17.85 dB      4:18 08-Opium
DR10      -3.25 dB   -16.34 dB      1:03 09-Land of Wonders
DR8       -0.20 dB   -10.80 dB      3:03 10-Whirlpool
DR9       -0.43 dB   -11.83 dB      7:11 11-Song for Little Shai
--------------------------------------------------------------------------------

Number of tracks:  11
Official DR value: DR10

Samplerate:        44100 Hz
Channels:          2
Bits per sample:   24
Bitrate:           1421 kbps
Codec:             FLAC
================================================================================
Приватный:
Нет (DHT включён)
Размер:
701.11 Мб (735,166,995 байт) » файлов: 14
Участники:
5 раздают, 0 качают (5 участников всего)
Внешние участники:
--- [ Обновить ]
Есть вопросы - пишите личное сообщение пользователю M0p94ok.
10:59
19
Нет комментариев. Ваш будет первым!