Поиск

1956 Helen Merrill - Dream Of You (2019) {RevOla} [24-44,1]

1956 Helen Merrill - Dream Of You (2019) {RevOla} [24-44,1]
Стили:
Битрейт аудио:
lossless
Треклист:

01 - People Will Say We're In Love 02:37
02 - Alone Together 03:14
03 - By Myself 03:26
04 - Any Place I Hang My Hat Is Home 04:12
05 - I've Never Seen 03:35
06 - He Was Too Good To Me 03:04
07 - A New Town Is A Blue Town 03:11
08 - How's The World Treating You? 02:59
09 - You're Lucky To Me 03:28
10 - Where Flamingos Fly 02:47
11 - Dream Of You 02:57
12 - I'm A Fool To Want You 04:09
13 - I'm Just A Lucky So And So 03:10
14 - Troubled Waters 03:16
15 - Alone Together (Alternate Take) 03:13
16 - Glad To Be Unhappy 02:53
17 - This Is My Night To Cry 03:09
18 - How's The World Treating You? (Alternate Take) 03:00

Доп. инфо:

Формат записи/Источник записи: [TR24][OF]
Издание: Remastered
Год издания/переиздания диска: 1956/2019
Издатель (лейбл): RevOla
Продолжительность: 00:58:20
Наличие сканов в содержимом раздачи: Нет

Контейнер: FLAC (*.flac)
Тип рипа: tracks
Разрядность: 24/44,1
Количество каналов: 2.0

Источник (релизер): Qobuz

Лог проверки качества
foobar2000 1.4.3 / Dynamic Range Meter 1.1.1
log date: 2020-05-11 10:46:00

--------------------------------------------------------------------------------
Analyzed: Helen Merrill / Dream of You
--------------------------------------------------------------------------------

DR         Peak         RMS     Duration Track
--------------------------------------------------------------------------------
DR12      -2.03 dB   -17.25 dB      2:37 01-People Will Say We're In Love (Remastered)
DR10      -4.17 dB   -19.77 dB      3:14 02-Alone Together (Version 1 Remastered)
DR10      -4.10 dB   -19.93 dB      3:14 02-Alone Together (Version 2 Remastered)
DR13      -1.75 dB   -18.89 dB      3:27 03-By Myself (Remastered)
DR12      -3.49 dB   -19.93 dB      4:12 04-Any Place I Hang My Hat Is Home (Remastered)
DR11      -5.69 dB   -20.97 dB      3:36 05-I've Never Seen (Remastered)
DR12      -4.04 dB   -21.02 dB      3:05 06-He Was Too Good To Me (Remastered)
DR12      -5.56 dB   -20.92 dB      3:12 07-A New Town Is A Blue Town (Remastered)
DR10      -6.49 dB   -20.35 dB      3:00 08-How's The World Treating You? (Version 1 Remastered)
DR11      -4.44 dB   -18.75 dB      3:29 09-You're Lucky To Me (Remastered)
DR12      -5.16 dB   -20.92 dB      2:47 10-Where Flamingos Fly (Remastered)
DR13      -4.50 dB   -23.24 dB      2:57 11-Dream Of You (Remastered)
DR11      -5.72 dB   -21.16 dB      4:10 12-I'm A Fool To Want You (Remastered)
DR14      -3.62 dB   -20.36 dB      3:11 13-I'm Just A Lucky So And So (Remastered)
DR11      -5.87 dB   -20.59 dB      3:16 14-Troubled Waters (Remastered)
DR8       -5.19 dB   -18.71 dB      2:54 16-Glad To Be Unhappy (Remastered)
DR9       -5.92 dB   -20.69 dB      3:10 17-This Is My Night To Cry (Remastered)
DR13      -4.33 dB   -20.14 dB      3:00 18-How's The World Treating You? (Version 2 Remastered)
--------------------------------------------------------------------------------

Number of tracks:  18
Official DR value: DR11

Samplerate:        44100 Hz
Channels:          2
Bits per sample:   24
Bitrate:           1348 kbps
Codec:             FLAC
================================================================================
Приватный:
Нет (DHT включён)
Размер:
567.86 Мб (595,442,566 байт) » файлов: 23
Участники:
0 раздают, 0 качают (0 участников всего)
Внешние участники:
11 раздают, 4 качают (15 участников всего) [ Обновить ]
No seeders - write a personal message to user M0p94ok. Нет сидеров - пишите личное сообщение пользователю M0p94ok.
20:53
14
Нет комментариев. Ваш будет первым!