Поиск

2017 Daymé Arocena - Cubafonía {Brownswood} [24-44,1]

2017 Daymé Arocena - Cubafonía {Brownswood} [24-44,1]
Битрейт аудио:
lossless
Треклист:

01. Eleggua 03:07
02. La Rumba me llamo yo 04:24
03. Lo que fue 03:49
04. Maybe Tomorrow 02:56
05. Negra Caridad 03:11
06. Mambo Na’ Mà 03:22
07. Cómo 05:05
08. Todo por Amor 03:08
09. Ángel 02:54
10. It’s Not Gonna Be Forever 03:50
11. Valentine 04:25

Доп. инфо:

Формат записи/Источник записи: [TR24][OF]
Наличие водяных знаков: Нет
Год издания/переиздания диска: 2017
Жанр: afro-cuban, vocal jazz, soul, world music
Издатель (лейбл): Brownswood Recordings
Продолжительность: 00:40:11
Наличие сканов в содержимом раздачи: Да (сканы)
Источник (релизер): qobuz

Контейнер: FLAC (*.flac)
Тип рипа: tracks
Разрядность: 24/44,1
Формат: PCM
Количество каналов: 2.0

Лог проверки качества
foobar2000 1.4 / Dynamic Range Meter 1.1.1
log date: 2019-01-16 11:39:23

--------------------------------------------------------------------------------
Analyzed: Daymé Arocena / Cubafonía
--------------------------------------------------------------------------------

DR         Peak         RMS     Duration Track
--------------------------------------------------------------------------------
DR8       -0.09 dB    -9.72 dB      3:08 01-Eleggua
DR8       -0.08 dB    -9.58 dB      4:24 02-La Rumba Me Llamo Yo
DR8       -0.09 dB    -9.98 dB      3:49 03-Lo Que Fue
DR9       -0.10 dB   -11.99 dB      2:57 04-Maybe Tomorrow
DR9       -0.10 dB   -10.68 dB      3:11 05-Negra Caridad
DR8       -0.09 dB   -10.75 dB      3:22 06-Mambo Na' Mà
DR8       -0.10 dB   -10.83 dB      5:05 07-Cómo
DR10      -0.10 dB   -11.75 dB      3:09 08-Todo por Amor
DR10      -0.10 dB   -13.89 dB      2:55 09-Ángel
DR8       -0.08 dB    -8.98 dB      3:50 10-It's Not Gonna Be Forever
DR10      -0.05 dB   -12.39 dB      4:25 11-Valentine
--------------------------------------------------------------------------------

Number of tracks:  11
Official DR value: DR9

Samplerate:        44100 Hz
Channels:          2
Bits per sample:   24
Bitrate:           1640 kbps
Codec:             FLAC
================================================================================
Приватный:
Нет (DHT включён)
Размер:
577.47 Мб (605,521,042 байт) » файлов: 21
Участники:
0 раздают, 0 качают (0 участников всего)
Внешние участники:
--- [ Обновить ]
No seeders - write a personal message to user M0p94ok. Нет сидеров - пишите личное сообщение пользователю M0p94ok.
07:26
11
Нет комментариев. Ваш будет первым!