Поиск

2020 Benjamin Moussay - Promontoire {ECM 2657} [24-88,2]

2020 Benjamin Moussay - Promontoire {ECM 2657} [24-88,2]
Дата записи диска:
январь 2019
Место записи:
Studios La Buissonne, Pernes les Fontaines, France
Издатель (лейбл):
Номер по каталогу:
ECM 2657
Носитель:
WEB
Формат:
PCM
Тип рипа:
tracks
Контейнер:
FLAC (*.flac)
Количество каналов:
2.0
Разрядность/ЧД:
24/88,2
Битрейт аудио:
lossless
Формат записи/Источник записи:
[TR24][OF]
Время звучания:
00:39:19
Наличие сканов:
буклет pdf
Наличие водяных знаков:
нет
Страна-производитель диска (релиза):
France
Релизёр (источник):
M0p94ok
Треклист:

01. 127  03:40
02. Promontoire  03:33
03. Horses  03:37
04. Don't Look Down  01:34
05. Villefranque  03:57
06. L'oiseau d'or  02:45
07. Chasseur de plumes  01:46
08. Sotto Voce  01:59
09. The Fallen  04:18
10. Theme From Nana  03:54
11. Monte Perdido  04:02
12. Théa  04:07

Доп. инфо:

После трех признанных записей ECM с Луи Склависом, каждый из которых свидетельствует о его импровизационной находчивости, французский пианист Бенджамин Муссей был приглашен для записи сольного альбома. Promontoire - результат, вдумчивый, рефлексивный и глубоко лирический альбом, который является одновременно поразительно оригинальным заявлением и замечательным дополнением к выдающейся серии соло фортепьяно ECM. Произведенный Манфредом Эйхером и записанный в Studios la Buissonne в январе 2019 года.

Лог проверки качества
foobar2000 1.4.3 / Dynamic Range Meter 1.1.1
log date: 2020-06-28 22:19:15

--------------------------------------------------------------------------------
Analyzed: Benjamin Moussay / Promontoire
--------------------------------------------------------------------------------

DR         Peak         RMS     Duration Track
--------------------------------------------------------------------------------
DR13      -5.26 dB   -23.02 dB      3:41 01-127
DR12     -11.42 dB   -28.31 dB      3:34 02-Promontoire
DR12      -2.57 dB   -20.63 dB      3:38 03-Horses
DR11      -3.81 dB   -19.88 dB      1:35 04-Don't Look Down
DR16      -7.61 dB   -30.89 dB      3:57 05-Villefranque
DR12      -1.35 dB   -19.40 dB      2:45 06-L'oiseau d'or
DR13      -3.11 dB   -20.96 dB      1:47 07-Chasseur de plumes
DR15     -13.11 dB   -32.86 dB      1:59 08-Sotto Voce
DR12      -1.20 dB   -19.29 dB      4:18 09-The Fallen
DR12      -1.12 dB   -19.91 dB      3:55 10-Theme From Nana
DR14      -2.94 dB   -24.31 dB      4:02 11-Monte Perdido
DR12      -3.28 dB   -19.63 dB      4:07 12-Théa
--------------------------------------------------------------------------------

Number of tracks:  12
Official DR value: DR13

Samplerate:        88200 Hz
Channels:          2
Bits per sample:   24
Bitrate:           2177 kbps
Codec:             FLAC
================================================================================
Приватный:
Нет (DHT включён)
Размер:
613.53 Мб (643,335,367 байт) » файлов: 15
Участники:
4 раздают, 0 качают (4 участников всего)
Внешние участники:
--- [ Обновить ]
No seeders - write a personal message to user M0p94ok. Нет сидеров - пишите личное сообщение пользователю M0p94ok.
22:34
15
Нет комментариев. Ваш будет первым!