Поиск

2015 Daymé Arocena - Nueva Era {Brownswood} [24-48]

2015 Daymé Arocena - Nueva Era {Brownswood} [24-48]
Битрейт аудио:
lossless
Треклист:

01. Madres (5:46)
02. Drama (3:30)
03. Sin Empezar (2:52)
04. Don't Unplug My Body (4:59)
05. Dust (3:56)
06. Nueva Era (2:44)
07. Crystal (3:53)
08. El Ruso (4:44)
09. Nino (2:37)
10. Come to Me (2:52)

Доп. инфо:

Формат записи/Источник записи: [TR24][OF]
Наличие водяных знаков: Нет
Год издания/переиздания диска: 2015
Издатель (лейбл): Brownswood Recordings
Продолжительность: 00:37:53
Наличие сканов в содержимом раздачи: Да (сканы)
Источник (релизер): qobuz

Контейнер: FLAC (*.flac)
Тип рипа: tracks
Разрядность: 24/48
Формат: PCM
Количество каналов: 2.0

Доп. информация: http://daymearocena.com/en/

Лог проверки качества
foobar2000 1.1.15 / Dynamic Range Meter 1.1.1
log date: 2019-09-12 16:00:36

--------------------------------------------------------------------------------
Analyzed: Daymé Arocena / Nueva Era
--------------------------------------------------------------------------------

DR         Peak         RMS     Duration Track
--------------------------------------------------------------------------------
DR11      -0.11 dB   -14.67 dB      5:46 01-Madres
DR10      -0.21 dB   -11.68 dB      3:29 02-Drama
DR8       -0.13 dB   -10.72 dB      2:53 03-Sin Empezar
DR9       -0.11 dB   -10.70 dB      4:58 04-Don't Unplug My Body
DR11      -0.13 dB   -14.24 dB      3:57 05-Dust
DR10      -0.21 dB   -12.46 dB      2:45 06-Nueva Era
DR9       -0.24 dB   -12.36 dB      3:51 07-Crystal
DR10       0.00 dB   -12.02 dB      4:44 08-El Ruso
DR10       0.00 dB   -12.39 dB      2:37 09-Nino
DR10      -0.21 dB   -13.65 dB      2:52 10-Come to Me
--------------------------------------------------------------------------------

Number of tracks:  10
Official DR value: DR10

Samplerate:        48000 Hz
Channels:          2
Bits per sample:   24
Bitrate:           1586 kbps
Codec:             FLAC
================================================================================
Приватный:
Нет (DHT включён)
Размер:
476.23 Мб (499,359,447 байт) » файлов: 21
Участники:
0 раздают, 0 качают (0 участников всего)
Внешние участники:
5 раздают, 2 качают (7 участников всего) [ Обновить ]
No seeders - write a personal message to user M0p94ok. Нет сидеров - пишите личное сообщение пользователю M0p94ok.
21:25
21
Нет комментариев. Ваш будет первым!