Поиск

1962 Wes Montgomery - Full House (2015) {Crazy Warthog} [24-44,1]

1962 Wes Montgomery - Full House (2015) {Crazy Warthog} [24-44,1]
Стили:
Битрейт аудио:
lossless
Треклист:

01 - Full House 09:15
02 - I've Grown Accustomed To Her Face 03:30
03 - Blue 'N' Boogie 09:41
04 - Cariba 09:42
05 - Come Rain Or Come Shine (Take 2) 06:58
06 - Come Rain Or Come Shine (Take 1) 07:18
07 - S.O.S. (Take 3) 05:06
08 - S.O.S. (Take 2) 04:49
09 - Born To Be Blue 07:25

Доп. инфо:

Формат записи/Источник записи: [TR24][OF]
Издание: Remastered
Год издания/переиздания диска: 1962/2015
Издатель (лейбл): Crazy Warthog Media
Продолжительность: 01:03:44
Наличие сканов в содержимом раздачи: Нет

Контейнер: FLAC (*.flac)
Тип рипа: tracks
Разрядность: 24/44,1
Количество каналов: 2.0

Источник (релизер): Qobuz

Лог проверки качества
foobar2000 1.4.3 / Dynamic Range Meter 1.1.1
log date: 2020-05-14 23:26:13

--------------------------------------------------------------------------------
Analyzed: Wes Montgomery / Full House
--------------------------------------------------------------------------------

DR         Peak         RMS     Duration Track
--------------------------------------------------------------------------------
DR11       0.00 dB   -12.80 dB      9:15 01-Full House
DR13      -2.55 dB   -21.15 dB      3:30 02-I've Grown Accustomed To Her Face
DR11       0.00 dB   -13.42 dB      9:41 03-Blue 'N' Boogie
DR12      -0.10 dB   -13.86 dB      9:42 04-Cariba
DR12       0.00 dB   -14.28 dB      6:58 05-Come Rain Or Come Shine (Take 2)
DR14       0.00 dB   -16.36 dB      7:18 06-Come Rain Or Come Shine (Take 1)
DR12      -0.01 dB   -13.23 dB      5:06 07-S.O.S. (Take 3)
DR12       0.00 dB   -14.12 dB      4:49 08-S.O.S. (Take 2)
DR14      -0.11 dB   -16.73 dB      7:25 09-Born To Be Blue
--------------------------------------------------------------------------------

Number of tracks:  9
Official DR value: DR12

Samplerate:        44100 Hz
Channels:          2
Bits per sample:   24
Bitrate:           1426 kbps
Codec:             FLAC
================================================================================
Приватный:
Нет (DHT включён)
Размер:
715.38 Мб (750,130,201 байт) » файлов: 14
Участники:
0 раздают, 1 качают (1 участников всего)
Внешние участники:
9 раздают, 3 качают (12 участников всего) [ Обновить ]
Скорость:
1.88 Мб/c 0/c
No seeders - write a personal message to user M0p94ok. Нет сидеров - пишите личное сообщение пользователю M0p94ok.
16:30
44
Нет комментариев. Ваш будет первым!