Поиск

1958 Eddie "Lockjaw" Davis with Shirley Scott - Jaws (2019) {RevOla} [24-44,1]

1958 Eddie "Lockjaw" Davis with Shirley Scott - Jaws (2019) {RevOla} [24-44,1]
Стили:
Битрейт аудио:
lossless
Треклист:

01 - I Let a Song Go Out of My Heart 05:19
02 - I'll Never Be the Same 04:44
03 - You Stepped Out of a Dream 04:20
04 - Old Devil Moon 04:26
05 - Too Close for Comfort 04:18
06 - Body and Soul 04:32
07 - But Not for Me 04:10
08 - Tangerine 04:53

Доп. инфо:

Формат записи/Источник записи: [TR24][OF]
Издание: Remastered
Год издания/переиздания диска: 1958/2019
Издатель (лейбл): RevOla
Продолжительность: 00:36:42
Наличие сканов в содержимом раздачи: Нет

Контейнер: FLAC (*.flac)
Тип рипа: tracks
Разрядность: 24/44,1
Количество каналов: 2.0

Источник (релизер): Qobuz

Лог проверки качества
foobar2000 1.4.3 / Dynamic Range Meter 1.1.1
log date: 2020-05-11 16:15:16

--------------------------------------------------------------------------------
Analyzed: Eddie Davis With Shirley Scott / JAWS
--------------------------------------------------------------------------------

DR         Peak         RMS     Duration Track
--------------------------------------------------------------------------------
DR14      -1.90 dB   -19.51 dB      5:20 01-I Let a Song Go Out of My Heart (Remastered)
DR15      -2.87 dB   -22.87 dB      4:45 02-I'll Never Be the Same (Remastered)
DR14      -1.72 dB   -20.16 dB      4:21 03-You Stepped Out of a Dream (Remastered)
DR14      -2.33 dB   -20.07 dB      4:27 04-Old Devil Moon (Remastered)
DR13      -1.78 dB   -18.25 dB      4:19 05-Too Close for Comfort (Remastered)
DR15      -1.55 dB   -19.76 dB      4:33 06-Body and Soul (Remastered)
DR13      -1.27 dB   -18.49 dB      4:11 07-But Not for Me (Remastered)
DR14      -2.01 dB   -19.23 dB      4:54 08-Tangerine (Remastered)
--------------------------------------------------------------------------------

Number of tracks:  8
Official DR value: DR14

Samplerate:        44100 Hz
Channels:          2
Bits per sample:   24
Bitrate:           1572 kbps
Codec:             FLAC
================================================================================
Приватный:
Нет (DHT включён)
Размер:
399.88 Мб (419,302,046 байт) » файлов: 13
Участники:
0 раздают, 0 качают (0 участников всего)
Внешние участники:
14 раздают, 4 качают (18 участников всего) [ Обновить ]
No seeders - write a personal message to user M0p94ok. Нет сидеров - пишите личное сообщение пользователю M0p94ok.
21:30
9
Нет комментариев. Ваш будет первым!