Поиск

2019 Dave Bass - No Boundaries {Whaling City Sound} [24-88,2]

2019 Dave Bass - No Boundaries {Whaling City Sound} [24-88,2]
Издатель (лейбл):
Битрейт аудио:
lossless
Треклист:

01. Lennie’s Pennies (05:32)
02. Spy Movie End Credits (07:12)
03. Agenbite of Inwit (04:39)
04. If I Loved You (06:20)
05. La Mulata Rumbera (06:04)
06. Tango Adagio (04:27)
07. Time of My Life (04:04)
08. Siboney (05:23)
09. Neither Have I Wings (05:43)
10. Danzon #1 (07:02)
11. Swing Theory (05:09)
12. In the Rain (06:43)
13. Hallucinations (03:50)

Доп. инфо:

Формат записи/Источник записи: [TR24][OF]
Наличие водяных знаков: Нет
Год издания/переиздания диска: 2019
Продолжительность: 01:12:40
Наличие сканов в содержимом раздачи: Нет

Контейнер: FLAC (*.flac)
Тип рипа: tracks
Разрядность: 24/88,2
Формат: PCM
Количество каналов: 2.0

Источник (релизер): qobuz.com (другой трекер)

Лог проверки качества
foobar2000 1.4.6 / Замер динамического диапазона (DR) 1.1.1
Дата отчёта:  2020-05-19 12:44:37

--------------------------------------------------------------------------------
Анализ:   Dave Bass / No Boundaries
--------------------------------------------------------------------------------

DR         Пики         RMS           Продолжительность трека
--------------------------------------------------------------------------------
DR9       -0.90 дБ   -11.50 дБ      5:32 01-Lennie’s Pennies
DR9       -0.90 дБ   -13.38 дБ      7:14 02-Spy Movie End Credits
DR8       -0.90 дБ   -10.47 дБ      4:40 03-Agenbite of Inwit
DR10      -0.90 дБ   -13.55 дБ      6:20 04-If I Loved You
DR8       -0.90 дБ   -10.61 дБ      6:08 05-La Mulata Rumbera
DR7       -0.90 дБ   -10.12 дБ      4:29 06-Tango Adagio
DR7       -0.90 дБ   -10.55 дБ      4:09 07-Time of My Life
DR8       -0.90 дБ   -10.63 дБ      5:25 08-Siboney
DR9       -0.90 дБ   -12.33 дБ      5:50 09-Neither Have I Wings
DR12      -0.90 дБ   -15.38 дБ      7:05 10-Danzon #1
DR9       -0.90 дБ   -11.95 дБ      5:09 11-Swing Theory
DR10      -0.90 дБ   -13.46 дБ      6:45 12-In The Rain
DR10      -0.90 дБ   -12.60 дБ      3:55 13-Hallucinations
--------------------------------------------------------------------------------

Количество треков: 13
Реальные значения DR: DR9

Частота:   88200 Гц
Каналов:   2
Разрядность:   24
Битрейт:   2446 кбит/с
Кодек:   FLAC
================================================================================
Приватный:
Нет (DHT включён)
Размер:
1.26 Гб (1,358,237,614 байт) » файлов: 15
Участники:
0 раздают, 0 качают (0 участников всего)
Внешние участники:
--- [ Обновить ]
No seeders - write a personal message to user M0p94ok. Нет сидеров - пишите личное сообщение пользователю M0p94ok.
07:26
13
Нет комментариев. Ваш будет первым!