Поиск

2020 Hildegunn Øiseth – Manana {Jazzland} [24-96]

2020 Hildegunn Øiseth – Manana {Jazzland} [24-96]
Битрейт аудио:
lossless
Треклист:

01. Lost and Found  04:50
02. Safe Mode  03:50
03. Now Now  07:01
04. Levitate  06:23
05. Manana  05:23
06. Whatever  03:11
07. Maihøst  04:40
08. Furusang  04:00
09. Keep Walking  03:47
10. Folksong for Friendship  03:24

Доп. инфо:

Формат записи/Источник записи: [TR24][OF]
Наличие водяных знаков: Нет
Год издания: 2020
Лейбл: Jazzland Recordings
Продолжительность: 00:54:02
Наличие сканов в содержимом раздачи: Только обложка
Источник: prostudiomasters
Контейнер: FLAC (*.flac)
Тип рипа: tracks
Разрядность: 24/96
Формат: PCM
Количество каналов: 2.0

Лог проверки качества
foobar2000 1.4 / Dynamic Range Meter 1.1.1
log date: 2020-04-03 22:27:11

––––––––––––––––––––––––––––––––––––––––
Analyzed: Hildegunn Øiseth / Hildegunn Øiseth
––––––––––––––––––––––––––––––––––––––––

DR Peak RMS Duration Track
––––––––––––––––––––––––––––––––––––––––
DR13 -2.76 dB -21.39 dB 4:51 01-Lost and Found
DR11 -0.13 dB -15.42 dB 3:51 02-Safe Mode
DR13 -0.57 dB -19.41 dB 7:02 03-Now Now
DR13 -1.69 dB -18.67 dB 6:24 04-Levitate
DR13 -0.20 dB -16.49 dB 5:24 05-Manana
DR11 -0.14 dB -13.50 dB 3:11 06-Whatever
DR12 -2.11 dB -20.01 dB 4:40 07-Maihøst
DR13 -0.71 dB -20.81 dB 4:00 08-Furusang
DR14 -1.70 dB -18.78 dB 3:48 09-Keep Walking
DR14 -2.89 dB -21.30 dB 3:24 10-Folksong for Friendship
––––––––––––––––––––––––––––––––––––––––

Number of tracks: 10
Official DR value: DR13

Samplerate: 96000 Hz
Channels: 2
Bits per sample: 24
Bitrate: 2557 kbps
Codec: FLAC
================================================================================
Приватный:
Да (DHT отключён)
Размер:
856.97 Мб (898,601,989 байт) » файлов: 12
Участники:
0 раздают, 0 качают (0 участников всего)
Внешние участники:
--- [ Обновить ]
No seeders - write a personal message to user M0p94ok. Нет сидеров - пишите личное сообщение пользователю M0p94ok.
07:56
18
Нет комментариев. Ваш будет первым!