Поиск

2020 Lorenzo Cominoli & Roberto Olzer - Timeline {Abeat} [24-96]

2020 Lorenzo Cominoli & Roberto Olzer - Timeline {Abeat} [24-96]
Битрейт аудио:
lossless
Треклист:

01. Bibo no Aozora (Sakamoto) - 2:21
02. Blue Whale (Cominoli) - 6:08
03. Dance of Moroccan Veil (Fewell) - 4:39
04. Atlantis (Olzer) - 5:30
05. Timeless Part I (Abercrombie) - 4:20
06. Timeless Part II (Abercrombie) - 4:53
07. The Dolphin Jump (Cominoli) - 3:51
08. Novembre (Olzer) - 3:41
09. Blott en dag (Ahnfelt) - 4:48

Доп. инфо:

Формат записи/Источник записи: [TR24][OF]
Наличие водяных знаков: Нет
Год издания/переиздания диска: 2020
Издатель (лейбл): Abeat
Продолжительность: 00:40:11
Наличие сканов в содержимом раздачи: Только обложка альбома

Контейнер: FLAC (*.flac)
Тип рипа: tracks
Разрядность: 24/96
Формат: WAV (flac.ape.wv)
Количество каналов: 2.0

Источник (релизер): redacted <-- qobuz

Лог проверки качества
foobar2000 1.5.3 / Dynamic Range Meter 1.1.1
log date: 2020-05-19 23:50:04

--------------------------------------------------------------------------------
Analyzed: Lorenzo Cominoli & Roberto Olzer / Timeline
--------------------------------------------------------------------------------

DR         Peak         RMS     Duration Track
--------------------------------------------------------------------------------
DR10      -0.30 dB   -13.69 dB      2:21 01-Bibo no Aozora
DR9       -0.30 dB   -11.96 dB      6:08 02-Blue Whale
DR10      -0.30 dB   -14.36 dB      4:39 03-Dance of Moroccan Veil
DR10      -0.30 dB   -13.90 dB      5:30 04-Atlantis
DR11      -0.30 dB   -15.39 dB      4:20 05-Timeless Part I
DR12      -0.49 dB   -15.71 dB      4:53 06-Timeless Part II
DR9       -0.30 dB   -12.35 dB      3:51 07-The Dolphin Jump
DR12      -0.30 dB   -15.50 dB      3:41 08-Novembre
DR12      -0.30 dB   -16.44 dB      4:48 09-Blott en dag
--------------------------------------------------------------------------------

Number of tracks:  9
Official DR value: DR11

Samplerate:        96000 Hz
Channels:          2
Bits per sample:   24
Bitrate:           2359 kbps
Codec:             FLAC
================================================================================
Приватный:
Нет (DHT включён)
Размер:
692.07 Мб (725,689,432 байт) » файлов: 13
Участники:
0 раздают, 0 качают (0 участников всего)
Внешние участники:
--- [ Обновить ]
No seeders - write a personal message to user M0p94ok. Нет сидеров - пишите личное сообщение пользователю M0p94ok.
19:07
17
Нет комментариев. Ваш будет первым!