Поиск

2020 Ohad Talmor Newsreel Sextet - Long Forms {Intakt} [24-48]

2020 Ohad Talmor Newsreel Sextet - Long Forms {Intakt} [24-48]
Издатель (лейбл):
Битрейт аудио:
lossless
Треклист:

01. Layas Lines [8:19]
02. Casado [6:25]
03. Kayeda [8:41]
04. Scent [12:41]
05. Groupings [1:12]
06. Misique Anodine [14:37]

Доп. инфо:

Формат записи/Источник записи: [TR24][OF]
Наличие водяных знаков: Нет
Год издания/переиздания диска: 2020
Продолжительность: 00:51:54
Наличие сканов в содержимом раздачи: Нет

Контейнер: FLAC (*.flac)
Тип рипа: tracks
Разрядность: 24/48
Формат: PCM
Количество каналов: 2.0

Источник (релизер): highresaudio.com (другой трекер)

Лог проверки качества
foobar2000 1.5.3 beta 2 / Dynamic Range Meter 1.1.1
log date: 2020-03-18 23:38:58

--------------------------------------------------------------------------------
Analyzed: Ohad Talmor Newsreel Sextet / Long Forms
--------------------------------------------------------------------------------

DR         Peak         RMS     Duration Track
--------------------------------------------------------------------------------
DR10      -1.08 dB   -13.73 dB      8:19 01-Layas Lines
DR11      -1.08 dB   -16.51 dB      6:25 02-Casado
DR10      -1.08 dB   -13.60 dB      8:41 03-Kayeda
DR8       -1.06 dB   -13.66 dB     12:41 04-Scent
DR10      -1.10 dB   -13.65 dB      1:12 05-Groupings
DR9       -1.06 dB   -15.40 dB     14:37 06-Misique Anodine
--------------------------------------------------------------------------------

Number of tracks:  6
Official DR value: DR10

Samplerate:        48000 Hz
Channels:          2
Bits per sample:   24
Bitrate:           1443 kbps
Codec:             FLAC
================================================================================
Приватный:
Нет (DHT включён)
Размер:
551.43 Мб (578,212,971 байт) » файлов: 8
Участники:
0 раздают, 0 качают (0 участников всего)
Внешние участники:
--- [ Обновить ]
No seeders - write a personal message to user M0p94ok. Нет сидеров - пишите личное сообщение пользователю M0p94ok.
21:34
15
Нет комментариев. Ваш будет первым!