Поиск

2020 Klaus Doldinger’s Passport - Motherhood {Warner Music} [24-44,1]

2020 Klaus Doldinger’s Passport - Motherhood {Warner Music} [24-44,1]
Стили:
Издатель (лейбл):
Битрейт аудио:
lossless
Треклист:

01 - Soul Tiger 01:47
02 - Devil Don't Get Me (feat. Udo Lindenberg) 04:09
03 - Song of Dying (feat. Max Mutzke) 07:00
04 - Yesterday's Song 06:40
05 - Women's Quarrel (feat. China Moses) 04:44
06 - Turning Around 05:26
07 - Circus Polka 05:19
08 - Soul Town 05:02
09 - When I Get You Alone (feat. Max Mutzke) 05:58
10 - Locomotive 05:09
11 - Wade in the Water (feat. Joo Kraus) 06:06

Доп. инфо:

Формат записи/Источник записи: [TR24][OF]
Год издания/переиздания диска: 2020
Издатель (лейбл): WM Germany
Продолжительность: 00:57:20
Наличие сканов в содержимом раздачи: PDF

Контейнер: FLAC (*.flac)
Тип рипа: tracks
Разрядность: 24/44,1
Количество каналов: 2.0

Источник (релизер): Qobuz

Лог проверки качества
foobar2000 1.3.16 / Dynamic Range Meter 1.1.1
log date: 2020-04-04 01:16:35

--------------------------------------------------------------------------------
Analyzed: Klaus Doldinger's Passport / Motherhood
--------------------------------------------------------------------------------

DR         Peak         RMS     Duration Track
--------------------------------------------------------------------------------
DR9       -0.80 dB   -12.70 dB      1:47 01-Soul Tiger
DR10      -0.77 dB   -11.53 dB      4:10 02-Devil Don't Get Me (feat. Udo Lindenberg)
DR9       -0.78 dB   -11.76 dB      7:01 03-Song of Dying (feat. Max Mutzke)
DR9       -0.78 dB   -13.53 dB      6:40 04-Yesterday's Song
DR10      -0.78 dB   -12.22 dB      4:45 05-Women's Quarrel (feat. China Moses)
DR8       -0.78 dB   -11.58 dB      5:26 06-Turning Around
DR9       -0.78 dB   -11.42 dB      5:20 07-Circus Polka
DR10      -0.78 dB   -11.92 dB      5:02 08-Soul Town
DR10      -0.77 dB   -11.76 dB      5:59 09-When I Get You Alone (feat. Max Mutzke)
DR9       -0.78 dB   -11.15 dB      5:10 10-Locomotive
DR10      -0.78 dB   -12.10 dB      6:07 11-Wade in the Water (feat. Joo Kraus)
--------------------------------------------------------------------------------

Number of tracks:  11
Official DR value: DR9

Samplerate:        44100 Hz
Channels:          2
Bits per sample:   24
Bitrate:           1687 kbps
Codec:             FLAC
================================================================================
Приватный:
Нет (DHT включён)
Размер:
684.75 Мб (718,014,729 байт) » файлов: 17
Участники:
0 раздают, 0 качают (0 участников всего)
Внешние участники:
--- [ Обновить ]
No seeders - write a personal message to user M0p94ok. Нет сидеров - пишите личное сообщение пользователю M0p94ok.
22:13
7
Нет комментариев. Ваш будет первым!