Поиск

1963 June Christy - The Intimate Miss Christy (2019) {RevOla} [24-44,1]

1963 June Christy - The Intimate Miss Christy (2019) {RevOla} [24-44,1]
Стили:
Битрейт аудио:
lossless
Треклист:

01 - The More I See You 03:03
02 - Spring Is Here 03:03
03 - Fly Me to the Moon 03:14
04 - I Fall in Love Too Easily 02:30
05 - Time After Time 02:22
06 - Don't Explain 02:38
07 - It Never Entered My Mind 03:31
08 - You're Nearer 02:54
09 - Misty 03:05
10 - Suddenly It's Spring 02:44
11 - I Get Along Without You Very Well 03:09
12 - Ev'ry Time 03:21

Доп. инфо:

Формат записи/Источник записи: [TR24][OF]
Издание: Remastered
Год издания/переиздания диска: 1963/2019
Издатель (лейбл): RevOla
Продолжительность: 00:35:34
Наличие сканов в содержимом раздачи: Нет

Контейнер: FLAC (*.flac)
Тип рипа: tracks
Разрядность: 24/44,1
Количество каналов: 2.0

Источник (релизер): Qobuz

Лог проверки качества
foobar2000 1.3.16 / Dynamic Range Meter 1.1.1
log date: 2019-01-19 20:27:54

--------------------------------------------------------------------------------
Analyzed: June Christy / The Intimate Miss Christy
--------------------------------------------------------------------------------

DR         Peak         RMS     Duration Track
--------------------------------------------------------------------------------
DR14      -4.00 dB   -24.12 dB      3:04 01-The More I See You (Remastered)
DR13      -6.90 dB   -23.81 dB      3:04 02-Spring Is Here (Remastered)
DR15      -2.25 dB   -22.83 dB      3:15 03-Fly Me to the Moon (Remastered)
DR12      -2.27 dB   -20.92 dB      2:30 04-I Fall in Love Too Easily (Remastered)
DR13      -2.08 dB   -19.38 dB      2:23 05-Time After Time (Remastered)
DR14      -2.31 dB   -22.50 dB      2:38 06-Don't Explain (Remastered)
DR14      -1.94 dB   -21.65 dB      3:31 07-It Never Entered My Mind (Remastered)
DR14      -1.75 dB   -22.88 dB      2:55 08-You're Nearer (Remastered)
DR14      -1.66 dB   -22.35 dB      3:06 09-Misty (Remastered)
DR16      -2.16 dB   -24.10 dB      2:45 10-Suddenly It's Spring (Remastered)
DR14      -1.83 dB   -21.67 dB      3:09 11-I Get Along Without You Very Well (Remastered)
DR12      -2.41 dB   -20.97 dB      3:21 12-Ev'ry Time (Remastered)
--------------------------------------------------------------------------------

Number of tracks:  12
Official DR value: DR14

Samplerate:        44100 Hz
Channels:          2
Bits per sample:   24
Bitrate:           1228 kbps
Codec:             FLAC
================================================================================
Приватный:
Нет (DHT включён)
Размер:
314.13 Мб (329,389,558 байт) » файлов: 17
Участники:
0 раздают, 0 качают (0 участников всего)
Внешние участники:
--- [ Обновить ]
No seeders - write a personal message to user M0p94ok. Нет сидеров - пишите личное сообщение пользователю M0p94ok.
23:37
13
Нет комментариев. Ваш будет первым!