Поиск

2020 Jo Harrop & Jamie McCredie - Weathering the Storm {Lateralize} [24-44,1]

2020 Jo Harrop & Jamie McCredie - Weathering the Storm {Lateralize} [24-44,1]
Стили:
Битрейт аудио:
lossless
Треклист:

01. My Foolish Heart  04:51
02. I Fall in Love Too Easily  03:46
03. Tenderly  03:00
04. Take It with Me  04:34
05. Guilty  05:08
06. More Than You Know  04:47
07. You Must Believe in Spring  05:22
08. Charade  03:16
09. Early Autumn  04:19
10. In the Wee Small Hours of the Morning  04:34
11. If  02:24

Доп. инфо:

Формат записи/Источник записи: [TR24][OF]
Наличие водяных знаков: Нет
Год издания: 2020
Издатель (лейбл): Lateralize Records
Продолжительность: 00:46:01
Наличие сканов в содержимом раздачи: Только обложка альбома
Контейнер: FLAC (*.flac)
Тип рипа: tracks
Разрядность: 24/44.1
Формат: PCM
Количество каналов: 2.0
Источник (релизер): qobuz.com

Лог проверки качества
foobar2000 1.4.8 / Dynamic Range Meter 1.1.1
log date: 2020-05-22 18:25:28

--------------------------------------------------------------------------------
Analyzed: Jo Harrop / Weathering the Storm
--------------------------------------------------------------------------------

DR         Peak         RMS     Duration Track
--------------------------------------------------------------------------------
DR10      -0.11 dB   -13.63 dB      4:51 01-My Foolish Heart
DR11      -0.22 dB   -15.27 dB      3:46 02-I Fall in Love Too Easily
DR11      -0.21 dB   -14.52 dB      3:00 03-Tenderly
DR10      -0.21 dB   -14.70 dB      4:34 04-Take It with Me
DR11      -0.21 dB   -15.93 dB      5:08 05-Guilty
DR11      -0.20 dB   -15.55 dB      4:48 06-More Than You Know
DR11      -0.21 dB   -15.67 dB      5:22 07-You Must Believe in Spring
DR12      -0.21 dB   -16.02 dB      3:16 08-Charade
DR11      -0.23 dB   -14.78 dB      4:20 09-Early Autumn
DR11      -0.22 dB   -16.04 dB      4:35 10-In the Wee Small Hours of the Morning
DR10      -0.66 dB   -14.38 dB      2:24 11-If
--------------------------------------------------------------------------------

Number of tracks:  11
Official DR value: DR11
Samplerate:        44100 Hz
Channels:          2
Bits per sample:   24
Bitrate:           1321 kbps
Codec:             FLAC
================================================================================
Приватный:
Нет (DHT включён)
Размер:
437.36 Мб (458,602,872 байт) » файлов: 13
Участники:
0 раздают, 0 качают (0 участников всего)
Внешние участники:
--- [ Обновить ]
No seeders - write a personal message to user M0p94ok. Нет сидеров - пишите личное сообщение пользователю M0p94ok.
11:51
12
Нет комментариев. Ваш будет первым!