Поиск

2020 John Finbury - Quatro {Green Flash Music} [24-88,2]

2020 John Finbury - Quatro {Green Flash Music} [24-88,2]
Стили:
Битрейт аудио:
lossless
Треклист:

01. Llegará el Día (4:47)
02. Independence Day (4:29)
03. La Madre de Todos los Errores (5:47)
04. All the Way to the End (6:34)
05. Comenzar (6:06)
06. Salón Jardín (4:27)
07. Romp (6:23)

Доп. инфо:

Формат записи/Источник записи: [TR24][OF]
Наличие водяных знаков: Нет
Год издания: 2020
Издатель (лейбл): Green Flash Music
Продолжительность: 00:38:31
Наличие сканов в содержимом раздачи: Только обложка альбома
Контейнер: FLAC (*.flac)
Тип рипа: tracks
Разрядность: 24/88.2
Формат: PCM
Количество каналов: 2.0
Источник (релизер): highresaudio.com

Лог проверки качества
foobar2000 1.4.8 / Dynamic Range Meter 1.1.1
log date: 2020-05-22 21:59:15

--------------------------------------------------------------------------------
Analyzed: John Finbury / Quatro
--------------------------------------------------------------------------------

DR         Peak         RMS     Duration Track
--------------------------------------------------------------------------------
DR7       -0.10 dB    -9.17 dB      4:47 01-Llegará el Día
DR7       -0.09 dB    -9.59 dB      4:29 02-Independence Day
DR7       -0.09 dB    -8.84 dB      5:47 03-La Madre de Todos los Errores
DR7       -0.09 dB    -9.76 dB      6:34 04-All the Way to the End
DR7       -0.10 dB    -9.86 dB      6:06 05-Comenzar
DR8       -0.10 dB   -10.93 dB      4:27 06-Salón Jardín
DR8       -0.09 dB   -10.24 dB      6:23 07-Romp
--------------------------------------------------------------------------------

Number of tracks:  7
Official DR value: DR7
Samplerate:        88200 Hz
Channels:          2
Bits per sample:   24
Bitrate:           2619 kbps
Codec:             FLAC
================================================================================
Приватный:
Нет (DHT включён)
Размер:
730.89 Мб (766,393,237 байт) » файлов: 9
Участники:
0 раздают, 0 качают (0 участников всего)
Внешние участники:
--- [ Обновить ]
No seeders - write a personal message to user M0p94ok. Нет сидеров - пишите личное сообщение пользователю M0p94ok.
12:39
19
Нет комментариев. Ваш будет первым!