Вы используете незарегистрированную версию компонента "Вкладки"!

Поиск

1955 Count Basie & Joe Williams - Count Basie Swings, Joe Williams Sings (2019) {RevOla} [24-44,1]

1955 Count Basie & Joe Williams - Count Basie Swings, Joe Williams Sings (2019) {RevOla} [24-44,1]
Стили:
Издатель (лейбл):
Битрейт аудио:
lossless
Доп. инфо:

Формат записи/Источник записи: [TR24][OF]
Издание: Remastered
Год издания/переиздания диска: 1955/2019
Издатель (лейбл): RevOla
Продолжительность: 00:42:51
Наличие сканов в содержимом раздачи: Нет

Контейнер: FLAC (*.flac)
Тип рипа: tracks
Разрядность: 24/44,1
Количество каналов: 2.0

Источник (релизер): Qobuz

Лог проверки качества
foobar2000 1.4.3 / Dynamic Range Meter 1.1.1
log date: 2020-07-01 13:00:00

--------------------------------------------------------------------------------
Analyzed: Count Basie & Joe Williams / Count Basie Swings, Joe Williams Sings
--------------------------------------------------------------------------------

DR         Peak         RMS     Duration Track
--------------------------------------------------------------------------------
DR15      -4.14 dB   -21.56 dB      5:29 01, 01-Every Day I Have The Blues (Remastered)
DR14      -4.33 dB   -22.60 dB      5:29 02, 02-The Comeback (Remastered)
DR13      -7.66 dB   -22.52 dB      3:05 03, 03-All Right, OK, You Win (Remastered)
DR13      -7.89 dB   -24.49 dB      3:39 04, 04-In The Evening (When The Sun Goes Down) (Remastered)
DR13      -7.51 dB   -21.70 dB      3:13 05, 05-Roll 'Em Pete (Remastered)
DR12      -6.48 dB   -21.98 dB      3:05 06, 06-Teach Me Tonight (Remastered)
DR13      -6.37 dB   -22.67 dB      2:58 07, 07-My Baby Upsets Me (Remastered)
DR13      -6.35 dB   -22.04 dB      3:33 08, 08-Please Send Me Someone To Love (Remastered)
DR13      -4.44 dB   -21.23 dB      3:48 09, 09-Ev'ry Day (I Fall In Love) (Remastered)
DR13      -5.29 dB   -22.55 dB      3:07 10, 10-As I Love You (Remastered)
DR15      -2.60 dB   -20.36 dB      2:37 11, 11-Stop! Don't! (Remastered)
DR13      -3.48 dB   -19.63 dB      2:53 12, 12-Too Close For Comfort (Remastered)
--------------------------------------------------------------------------------

Number of tracks:  12
Official DR value: DR13

Samplerate:        44100 Hz
Channels:          2
Bits per sample:   24
Bitrate:           785 kbps
Codec:             FLAC
================================================================================
Any questions - support@pro-jazz.com. Есть вопросы - support@pro-jazz.com
06:53
269
Нет комментариев. Ваш будет первым!