Вы используете незарегистрированную версию компонента "Вкладки"!

Поиск

1981 Elvin Jones Jazz Machine - At Onkel Pö´s Carnegie Hall, Hamburg (2020) {Jazzline} [24-48]

1981 Elvin Jones Jazz Machine - At Onkel Pö´s Carnegie Hall, Hamburg (2020) {Jazzline} [24-48]
Стили:
Битрейт аудио:
lossless
Доп. инфо:

Формат записи/Источник записи: [TR24][OF]
Издание: Remastered
Год издания/переиздания диска: 1981/2020
Издатель (лейбл): Jazzline
Продолжительность: 02:13:36
Наличие сканов в содержимом раздачи: Нет

Контейнер: FLAC (*.flac)
Тип рипа: tracks
Разрядность: 24/48
Количество каналов: 2.0
Другие дорожки звука: Loudness war example, trimmed at -0.09 dB

Источник (релизер): Qobuz

Лог проверки качества
foobar2000 1.4.3 / Dynamic Range Meter 1.1.1
log date: 2020-07-19 08:41:24

--------------------------------------------------------------------------------
Analyzed: Elvin Jones Jazz Machine / At Onkel Pö´s Carnegie Hall, Hamburg 1981 (Remastered)
--------------------------------------------------------------------------------

DR         Peak         RMS     Duration Track
--------------------------------------------------------------------------------
DR11      -0.09 dB   -12.92 dB     20:12 01-Elvin Jones Blues
DR14      -0.10 dB   -18.28 dB     15:52 02-In A Sentimental Mood
DR10      -0.09 dB   -12.52 dB     30:53 03-Doll Of The Bridge
DR10      -0.09 dB   -12.24 dB     22:00 04-George And Me
DR11      -0.09 dB   -14.03 dB     15:21 05-My One And Only Love
DR10      -0.09 dB   -11.29 dB     20:01 06-Antigua
DR11      -0.09 dB   -14.26 dB      9:19 07-Friday Night
--------------------------------------------------------------------------------

Number of tracks:  7
Official DR value: DR11

Samplerate:        48000 Hz
Channels:          2
Bits per sample:   24
Bitrate:           1650 kbps
Codec:             FLAC
================================================================================
Any questions - support@pro-jazz.com. Есть вопросы - support@pro-jazz.com
07:02
276
Нет комментариев. Ваш будет первым!