Вы используете незарегистрированную версию компонента "Вкладки"!

Поиск

2020 Pat Collins - Time Well Spent {Cornerstone} [24-44,1]

2020 Pat Collins - Time Well Spent {Cornerstone} [24-44,1]
Стили:
Битрейт аудио:
lossless
Доп. инфо:

Формат записи/Источник записи: [TR24][OF]
Год издания/переиздания диска: 2020
Издатель (лейбл): Cornerstone Records Inc.
Продолжительность: 00:53:56
Наличие сканов в содержимом раздачи: Нет

Контейнер: FLAC (*.flac)
Тип рипа: tracks
Разрядность: 24/44,1
Количество каналов: 2.0

Источник (релизер): Qobuz

Лог проверки качества
foobar2000 1.4.3 / Dynamic Range Meter 1.1.1
log date: 2020-07-09 11:47:44

--------------------------------------------------------------------------------
Analyzed: Pat Collins / Time Well Spent
--------------------------------------------------------------------------------

DR         Peak         RMS     Duration Track
--------------------------------------------------------------------------------
DR10      -0.30 dB   -12.74 dB      7:12 01-Time Well Spent
DR10      -0.30 dB   -12.51 dB      4:55 02-Larry's Lament
DR9       -0.30 dB   -13.11 dB      4:35 03-Maybe Tomorrow
DR10      -0.30 dB   -12.12 dB      6:22 04-Between the Lines
DR9       -0.30 dB   -12.25 dB      5:13 05-Still Crazy After All These Years
DR10      -0.30 dB   -12.06 dB      3:59 06-Contrail
DR10      -0.30 dB   -12.55 dB      4:16 07-Back Country
DR10      -0.30 dB   -12.73 dB      6:52 08-After Ben
DR10      -0.20 dB   -12.55 dB      5:03 09-One For Jerry
DR10      -0.30 dB   -12.48 dB      5:32 10-You Must Believe In Spring
--------------------------------------------------------------------------------

Number of tracks:  10
Official DR value: DR10

Samplerate:        44100 Hz
Channels:          2
Bits per sample:   24
Bitrate:           1330 kbps
Codec:             FLAC
================================================================================
Any questions - support@pro-jazz.com. Есть вопросы - support@pro-jazz.com
21:27
273
Нет комментариев. Ваш будет первым!