Вы используете незарегистрированную версию компонента "Вкладки"!

Поиск

2020 Soft Machine - Live at the Baked Potato {Dyad} [24-44,1]

2020 Soft Machine - Live at the Baked Potato {Dyad} [24-44,1]
Стили:
Битрейт аудио:
lossless
Доп. инфо:

Формат записи/Источник записи: [TR24][OF]
Наличие водяных знаков: Нет
Год издания/переиздания диска: 2020
Издатель (лейбл): Dyad
Продолжительность: 00:59:13
Наличие сканов в содержимом раздачи: Буклет PDF

Контейнер: FLAC (*.flac)
Тип рипа: tracks
Разрядность: 24/44,1
Формат: PCM
Количество каналов: 2.0

Источник (релизер): https://softmachine-moonjune.bandcamp.com/album/live-at-the-baked-potato

Лог проверки качества
foobar2000 1.3.16 / Dynamic Range Meter 1.1.1
log date: 2020-06-02 20:29:12

--------------------------------------------------------------------------------
Analyzed: Soft Machine / Live at the Baked Potato
--------------------------------------------------------------------------------

DR         Peak         RMS     Duration Track
--------------------------------------------------------------------------------
DR10      -6.95 dB   -20.99 dB      2:30 01-Out-Bloody-Intro
DR9       -0.66 dB   -11.14 dB      5:28 02-Out-Bloody-Rageous, Part 1
DR11      -0.73 dB   -13.72 dB      2:18 03-Sideburn
DR9       -0.64 dB   -10.56 dB      6:29 04-Hazard Profile, Part 1
DR10      -0.83 dB   -13.91 dB      4:36 05-Kings And Queens
DR10      -0.72 dB   -13.84 dB      6:19 06-The Tale Of Taliesin
DR10      -0.83 dB   -15.14 dB      2:16 07-Heart Off Guard
DR10      -0.80 dB   -13.06 dB      3:44 08-Broken Hill
DR10      -0.69 dB   -12.36 dB      6:25 09-Fourteen Hour Dream
DR11      -0.67 dB   -14.60 dB      5:12 10-The Man Who Waved At Trains
DR9       -0.74 dB   -12.76 dB      7:00 11-Life On Bridges
DR10      -0.68 dB   -12.17 dB      7:03 12-Hidden Details
--------------------------------------------------------------------------------

Number of tracks:  12
Official DR value: DR10

Samplerate:        44100 Hz
Channels:          2
Bits per sample:   24
Bitrate:           1597 kbps
Codec:             FLAC
================================================================================
Any questions - support@pro-jazz.com. Есть вопросы - support@pro-jazz.com
07:49
259
Нет комментариев. Ваш будет первым!