Вы используете незарегистрированную версию компонента "Вкладки"!

Поиск

1959 Victor Feldman - Latinsville! (2019) {RevOla} [24-44,1]

1959 Victor Feldman - Latinsville! (2019) {RevOla} [24-44,1]
Стили:
Издатель (лейбл):
Битрейт аудио:
lossless
Доп. инфо:

Формат записи/Источник записи: [TR24][OF]
Издание: Remastered
Год издания/переиздания диска: 1959/2019
Жанр: Latin Jazz
Издатель (лейбл): RevOla
Продолжительность: 00:39:05
Наличие сканов в содержимом раздачи: Нет

Контейнер: FLAC (*.flac)
Тип рипа: tracks
Разрядность: 24/44,1
Количество каналов: 2.0

Источник (релизер): Qobuz

Лог проверки качества
foobar2000 1.4.3 / Dynamic Range Meter 1.1.1
log date: 2020-07-06 12:05:34

--------------------------------------------------------------------------------
Analyzed: Victor Feldman / Latinsville!
--------------------------------------------------------------------------------

DR         Peak         RMS     Duration Track
--------------------------------------------------------------------------------
DR11      -4.23 dB   -17.37 dB      3:20 01-South Of The Border (Remastered)
DR12      -4.58 dB   -18.29 dB      3:23 02-She's A Latin From Manhatten! (Remastered)
DR11      -5.18 dB   -19.00 dB      2:58 03-Flying Down To Rio (Remastered)
DR12      -5.58 dB   -18.73 dB      2:50 04-Cuban Pete (Remastered)
DR10     -10.48 dB   -23.71 dB      3:11 05-The Gypsy (Remastered)
DR11      -5.56 dB   -18.69 dB      3:38 06-Poinciana (Remastered)
DR12      -4.64 dB   -18.35 dB      3:29 07-Lady Of Spain (Remastered)
DR12      -6.92 dB   -20.06 dB      2:58 08-Spain (Remastered)
DR13      -5.02 dB   -20.12 dB      3:31 09-Cuban Love Song (Remastered)
DR12      -6.29 dB   -19.54 dB      3:27 10-In A Little Spanish Town (Remastered)
DR12      -5.63 dB   -20.15 dB      2:55 11-Fiesta (Remastered)
DR12      -5.48 dB   -20.22 dB      3:30 12-Woody'n You (Remastered)
--------------------------------------------------------------------------------

Number of tracks:  12
Official DR value: DR12

Samplerate:        44100 Hz
Channels:          2
Bits per sample:   24
Bitrate:           1225 kbps
Codec:             FLAC
================================================================================
Any questions - support@pro-jazz.com. Есть вопросы - support@pro-jazz.com
16:50
259
Нет комментариев. Ваш будет первым!