Поиск

1943-1944 Glenn Miller and the Army Air Force Band - Rare Broadcast (1990) {LaserLight} [CD]

1943-1944 Glenn Miller and the Army Air Force Band - Rare Broadcast (1990) {LaserLight} [CD]
Стили:
Номер по каталогу:
LaserLight 15 712
Носитель:
CD
Тип рипа:
tracks+.cue
Аудиокодек:
FLAC (*.flac)
Битрейт аудио:
lossless
Время звучания:
00:49:04
Наличие сканов:
да
Страна-производитель диска (релиза):
USA
Релизёр (источник):
Musicgate
Лог создания рипа
Exact Audio Copy V1.3 from 2. September 2016

EAC extraction logfile from 5. May 2020, 10:02

Glenn Miller and the Army Air Force Band / Rare Broadcast - Performances from 1943-1944

Used drive  : TS8XDVDSTRANSCEND   Adapter: 1  ID: 1

Read mode               : Secure
Utilize accurate stream : Yes
Defeat audio cache      : Yes
Make use of C2 pointers : No

Read offset correction                      : 6
Overread into Lead-In and Lead-Out          : No
Fill up missing offset samples with silence : Yes
Delete leading and trailing silent blocks   : No
Null samples used in CRC calculations       : Yes
Used interface                              : Native Win32 interface for Win NT & 2000
Gap handling                                : Appended to previous track

Used output format              : User Defined Encoder
Selected bitrate                : 1024 kBit/s
Quality                         : High
Add ID3 tag                     : No
Command line compressor         : C:\Program Files (x86)\Exact Audio Copy\FLAC\FLAC.EXE
Additional command line options : -V -8 -T "ARTIST=%artist%" -T "TITLE=%title%" -T "ALBUM=%albumtitle%" -T "DATE=%year%" -T "TRACKNUMBER=%tracknr%" -T "GENRE=%genre%" %source%

TOC of the extracted CD

     Track |   Start  |  Length  | Start sector | End sector
    ---------------------------------------------------------
        1  |  0:00.38 |  2:20.10 |        38    |    10547
        2  |  2:20.48 |  3:38.40 |     10548    |    26937
        3  |  5:59.13 |  3:01.17 |     26938    |    40529
        4  |  9:00.30 |  1:34.28 |     40530    |    47607
        5  | 10:34.58 |  3:12.50 |     47608    |    62057
        6  | 13:47.33 |  4:12.05 |     62058    |    80962
        7  | 17:59.38 |  1:57.70 |     80963    |    89807
        8  | 19:57.33 |  3:04.55 |     89808    |   103662
        9  | 23:02.13 |  3:02.45 |    103663    |   117357
       10  | 26:04.58 |  2:00.02 |    117358    |   126359
       11  | 28:04.60 |  3:37.33 |    126360    |   142667
       12  | 31:42.18 |  2:15.05 |    142668    |   152797
       13  | 33:57.23 |  2:03.25 |    152798    |   162047
       14  | 36:00.48 |  3:17.00 |    162048    |   176822
       15  | 39:17.48 |  2:36.00 |    176823    |   188522
       16  | 41:53.48 |  7:11.00 |    188523    |   220847

Track  1

     Filename D:\Music\Musicgate's rips\Glenn Miller and the Army Air Force Band - Rare Broadcast - Performances from 1943-1944 - 1990 (LaserLight 15 712) [FLAC]\01. Sun Valley Jump.wav

     Pre-gap length  0:00:02.38

     Peak level 79.2 %
     Extraction speed 1.0 X
     Track quality 100.0 %
     Test CRC 0D88FFA0
     Copy CRC 0D88FFA0
     Accurately ripped (confidence 7)  [CB846486]  (AR v2)
     Copy OK

Track  2

     Filename D:\Music\Musicgate's rips\Glenn Miller and the Army Air Force Band - Rare Broadcast - Performances from 1943-1944 - 1990 (LaserLight 15 712) [FLAC]\02. I Got Rhythm.wav

     Pre-gap length  0:00:01.30

     Peak level 77.0 %
     Extraction speed 1.2 X
     Track quality 100.0 %
     Test CRC 55F0974E
     Copy CRC 55F0974E
     Accurately ripped (confidence 7)  [9CDD1F8D]  (AR v2)
     Copy OK

Track  3

     Filename D:\Music\Musicgate's rips\Glenn Miller and the Army Air Force Band - Rare Broadcast - Performances from 1943-1944 - 1990 (LaserLight 15 712) [FLAC]\03. Rhapsody in Blue.wav

     Pre-gap length  0:00:01.40

     Peak level 72.2 %
     Extraction speed 1.1 X
     Track quality 99.9 %
     Test CRC D80A7E86
     Copy CRC D80A7E86
     Accurately ripped (confidence 7)  [591B716B]  (AR v2)
     Copy OK

Track  4

     Filename D:\Music\Musicgate's rips\Glenn Miller and the Army Air Force Band - Rare Broadcast - Performances from 1943-1944 - 1990 (LaserLight 15 712) [FLAC]\04. My Blue Heaven.wav

     Pre-gap length  0:00:00.62

     Peak level 62.7 %
     Extraction speed 1.1 X
     Track quality 100.0 %
     Test CRC 3D3B7361
     Copy CRC 3D3B7361
     Accurately ripped (confidence 7)  [FC5C3DC2]  (AR v2)
     Copy OK

Track  5

     Filename D:\Music\Musicgate's rips\Glenn Miller and the Army Air Force Band - Rare Broadcast - Performances from 1943-1944 - 1990 (LaserLight 15 712) [FLAC]\05. Long Ago And Far Away.wav

     Pre-gap length  0:00:01.20

     Peak level 75.8 %
     Extraction speed 1.4 X
     Track quality 100.0 %
     Test CRC E701A852
     Copy CRC E701A852
     Accurately ripped (confidence 7)  [31C7EFBD]  (AR v2)
     Copy OK

Track  6

     Filename D:\Music\Musicgate's rips\Glenn Miller and the Army Air Force Band - Rare Broadcast - Performances from 1943-1944 - 1990 (LaserLight 15 712) [FLAC]\06. Oh What A Beautiful Morning.wav

     Pre-gap length  0:00:01.35

     Peak level 72.7 %
     Extraction speed 1.5 X
     Track quality 100.0 %
     Test CRC C0B550BF
     Copy CRC C0B550BF
     Accurately ripped (confidence 7)  [8F527B98]  (AR v2)
     Copy OK

Track  7

     Filename D:\Music\Musicgate's rips\Glenn Miller and the Army Air Force Band - Rare Broadcast - Performances from 1943-1944 - 1990 (LaserLight 15 712) [FLAC]\07. A Tisket A Tasket.wav

     Pre-gap length  0:00:01.15

     Peak level 76.0 %
     Extraction speed 1.4 X
     Track quality 100.0 %
     Test CRC 7EAF3E7C
     Copy CRC 7EAF3E7C
     Accurately ripped (confidence 7)  [39B29599]  (AR v2)
     Copy OK

Track  8

     Filename D:\Music\Musicgate's rips\Glenn Miller and the Army Air Force Band - Rare Broadcast - Performances from 1943-1944 - 1990 (LaserLight 15 712) [FLAC]\08. What Do You Do In The Infantry.wav

     Pre-gap length  0:00:01.15

     Peak level 78.9 %
     Extraction speed 1.6 X
     Track quality 100.0 %
     Test CRC 15231D14
     Copy CRC 15231D14
     Accurately ripped (confidence 7)  [06E6BB50]  (AR v2)
     Copy OK

Track  9

     Filename D:\Music\Musicgate's rips\Glenn Miller and the Army Air Force Band - Rare Broadcast - Performances from 1943-1944 - 1990 (LaserLight 15 712) [FLAC]\09. Soitude.wav

     Pre-gap length  0:00:02.15

     Peak level 74.5 %
     Extraction speed 1.4 X
     Track quality 99.9 %
     Test CRC C1DAAC9E
     Copy CRC C1DAAC9E
     Accurately ripped (confidence 7)  [7046E182]  (AR v2)
     Copy OK

Track 10

     Filename D:\Music\Musicgate's rips\Glenn Miller and the Army Air Force Band - Rare Broadcast - Performances from 1943-1944 - 1990 (LaserLight 15 712) [FLAC]\10. I'll Be Around.wav

     Pre-gap length  0:00:01.23

     Peak level 73.8 %
     Extraction speed 1.5 X
     Track quality 100.0 %
     Test CRC 03B6709B
     Copy CRC 03B6709B
     Accurately ripped (confidence 7)  [1E7110B4]  (AR v2)
     Copy OK

Track 11

     Filename D:\Music\Musicgate's rips\Glenn Miller and the Army Air Force Band - Rare Broadcast - Performances from 1943-1944 - 1990 (LaserLight 15 712) [FLAC]\11. Here We Go Again.wav

     Pre-gap length  0:00:00.70

     Peak level 80.4 %
     Extraction speed 1.6 X
     Track quality 99.9 %
     Test CRC 4BB4D699
     Copy CRC 4BB4D699
     Accurately ripped (confidence 7)  [2AB1BAB5]  (AR v2)
     Copy OK

Track 12

     Filename D:\Music\Musicgate's rips\Glenn Miller and the Army Air Force Band - Rare Broadcast - Performances from 1943-1944 - 1990 (LaserLight 15 712) [FLAC]\12. Jeep Jockey Jump.wav

     Pre-gap length  0:00:01.45

     Peak level 89.4 %
     Extraction speed 1.7 X
     Track quality 100.0 %
     Test CRC 69B9C753
     Copy CRC 69B9C753
     Accurately ripped (confidence 7)  [6AA70944]  (AR v2)
     Copy OK

Track 13

     Filename D:\Music\Musicgate's rips\Glenn Miller and the Army Air Force Band - Rare Broadcast - Performances from 1943-1944 - 1990 (LaserLight 15 712) [FLAC]\13. Over There.wav

     Pre-gap length  0:00:01.25

     Peak level 84.3 %
     Extraction speed 1.7 X
     Track quality 100.0 %
     Test CRC 8BE26CEB
     Copy CRC 8BE26CEB
     Accurately ripped (confidence 7)  [D68B31F1]  (AR v2)
     Copy OK

Track 14

     Filename D:\Music\Musicgate's rips\Glenn Miller and the Army Air Force Band - Rare Broadcast - Performances from 1943-1944 - 1990 (LaserLight 15 712) [FLAC]\14. Peggy, The Pin Up Girl.wav

     Pre-gap length  0:00:01.50

     Peak level 90.9 %
     Extraction speed 1.9 X
     Track quality 100.0 %
     Test CRC 3E9E1AFD
     Copy CRC 3E9E1AFD
     Accurately ripped (confidence 7)  [4EB0F80D]  (AR v2)
     Copy OK

Track 15

     Filename D:\Music\Musicgate's rips\Glenn Miller and the Army Air Force Band - Rare Broadcast - Performances from 1943-1944 - 1990 (LaserLight 15 712) [FLAC]\15. There'll Be A Hot Time In The Town Of Berlin.wav

     Pre-gap length  0:00:01.25

     Peak level 90.6 %
     Extraction speed 1.6 X
     Track quality 99.9 %
     Test CRC C599D668
     Copy CRC C599D668
     Accurately ripped (confidence 7)  [C56D3108]  (AR v2)
     Copy OK

Track 16

     Filename D:\Music\Musicgate's rips\Glenn Miller and the Army Air Force Band - Rare Broadcast - Performances from 1943-1944 - 1990 (LaserLight 15 712) [FLAC]\16. Medley.wav

     Pre-gap length  0:00:02.40

     Peak level 89.0 %
     Extraction speed 2.3 X
     Track quality 100.0 %
     Test CRC 568AF609
     Copy CRC 568AF609
     Accurately ripped (confidence 7)  [AF156E6B]  (AR v2)
     Copy OK

All tracks accurately ripped

No errors occurred

End of status report

---- CUETools DB Plugin V2.1.6

[CTDB TOCID: ksMWOxrDYgnxEV_J7I9LtRC50fk-] found
Submit result: unrecognized or virtual drive
Track | CTDB Status
  1   | (30/30) Accurately ripped
  2   | (30/30) Accurately ripped
  3   | (30/30) Accurately ripped
  4   | (30/30) Accurately ripped
  5   | (30/30) Accurately ripped
  6   | (30/30) Accurately ripped
  7   | (30/30) Accurately ripped
  8   | (30/30) Accurately ripped
  9   | (30/30) Accurately ripped
 10   | (30/30) Accurately ripped
 11   | (30/30) Accurately ripped
 12   | (30/30) Accurately ripped
 13   | (30/30) Accurately ripped
 14   | (30/30) Accurately ripped
 15   | (30/30) Accurately ripped
 16   | (30/30) Accurately ripped

==== Log checksum 07F72C7E808783392526D804E68FBE31D11EDDAE471FB9F7BC090FB46D3D25D8 ====
No seeders - write personal message to M0p94ok. Any questions - support@pro-jazz.com.
Нет сидеров - пишите в личку M0p94ok. Есть вопросы - support@pro-jazz.com
19:28
36
Нет комментариев. Ваш будет первым!