Поиск

1977 Buddy Rich - Giant Steps {Point Entertainment} [CD]

1977 Buddy Rich - Giant Steps {Point Entertainment} [CD]
Стили:
Номер по каталогу:
Point Entertainment MDT 8447
Носитель:
CD
Тип рипа:
image+.cue
Аудиокодек:
FLAC (*.flac)
Битрейт аудио:
lossless
Время звучания:
00:48:12
Наличие сканов:
да
Страна-производитель диска (релиза):
USA
Релизёр (источник):
dellsat
Лог создания рипа
Exact Audio Copy V1.3 from 2. September 2016

EAC extraction logfile from 8. May 2020, 20:05

Buddy Rich / Giant Steps

Used drive  : PIONEER BD-RW   BDR-208D   Adapter: 1  ID: 0

Read mode               : Secure
Utilize accurate stream : Yes
Defeat audio cache      : Yes
Make use of C2 pointers : No

Read offset correction                      : 667
Overread into Lead-In and Lead-Out          : No
Fill up missing offset samples with silence : Yes
Delete leading and trailing silent blocks   : No
Null samples used in CRC calculations       : Yes
Used interface                              : Native Win32 interface for Win NT & 2000

Used output format              : User Defined Encoder
Selected bitrate                : 768 kBit/s
Quality                         : High
Add ID3 tag                     : No
Command line compressor         : C:\Program\FLAC\flac.exe
Additional command line options : -V -8 -T "Date=%year%" -T "Genre=%genre%" %source%

TOC of the extracted CD

     Track |   Start  |  Length  | Start sector | End sector
    ---------------------------------------------------------
        1  |  0:00.33 |  5:30.22 |        33    |    24804
        2  |  5:30.55 |  5:36.25 |     24805    |    50029
        3  | 11:07.05 |  7:30.58 |     50030    |    83837
        4  | 18:37.63 |  6:16.42 |     83838    |   112079
        5  | 24:54.30 |  3:36.25 |    112080    |   128304
        6  | 28:30.55 |  5:56.45 |    128305    |   155049
        7  | 34:27.25 |  6:04.55 |    155050    |   182404
        8  | 40:32.05 |  7:39.43 |    182405    |   216872

Range status and errors

Selected range

     Filename C:\Documents and Settings\VASILIY\Mina dokument\РИПЫ\Buddy Rich - Giant Steps.wav

     Peak level 97.6 %
     Extraction speed 7.0 X
     Range quality 100.0 %
     Test CRC BD74564E
     Copy CRC BD74564E
     Copy OK

No errors occurred

AccurateRip summary

Track  1  accurately ripped (confidence 10)  [E3705FE5]  (AR v2)
Track  2  accurately ripped (confidence 10)  [B1B416E8]  (AR v2)
Track  3  accurately ripped (confidence 10)  [D293CAB3]  (AR v2)
Track  4  accurately ripped (confidence 10)  [8128D0CC]  (AR v2)
Track  5  accurately ripped (confidence 10)  [3EEA650D]  (AR v2)
Track  6  accurately ripped (confidence 10)  [8C027BE2]  (AR v2)
Track  7  accurately ripped (confidence 11)  [81B403EC]  (AR v2)
Track  8  accurately ripped (confidence 10)  [8E9EA3FE]  (AR v2)

All tracks accurately ripped

End of status report

==== Log checksum C6A47ED1EE75726AA51FC76218AFCCF819CC43D97008434B7A377195FC378DAE ====
No seeders - write personal message to M0p94ok. Any questions - support@pro-jazz.com.
Нет сидеров - пишите в личку M0p94ok. Есть вопросы - support@pro-jazz.com
16:14
39
Нет комментариев. Ваш будет первым!