Поиск

1997 Rose Murphy (The Chee-Chee Girl) - The Complete RCA Victor Recordings {RCA, BMG} [CD]

1997 Rose Murphy (The Chee-Chee Girl) - The Complete RCA Victor Recordings {RCA, BMG} [CD]
Издатель (лейбл):
Номер по каталогу:
74321532222
Носитель:
CD
Тип рипа:
tracks+.cue
Аудиокодек:
FLAC (*.flac)
Битрейт аудио:
lossless
Время звучания:
00:44:07
Наличие сканов:
да
Страна-производитель диска (релиза):
France
Релизёр (источник):
Musicgate
Лог создания рипа
Exact Audio Copy V1.3 from 2. September 2016

EAC extraction logfile from 4. May 2020, 20:20

Rose Murphy / The Complete RCA Victor Recordings

Used drive  : HL-DT-STDVDRAM GH24NSD1   Adapter: 1  ID: 0

Read mode               : Secure
Utilize accurate stream : Yes
Defeat audio cache      : Yes
Make use of C2 pointers : No

Read offset correction                      : 6
Overread into Lead-In and Lead-Out          : No
Fill up missing offset samples with silence : Yes
Delete leading and trailing silent blocks   : No
Null samples used in CRC calculations       : Yes
Used interface                              : Native Win32 interface for Win NT & 2000
Gap handling                                : Appended to previous track

Used output format              : User Defined Encoder
Selected bitrate                : 1024 kBit/s
Quality                         : High
Add ID3 tag                     : No
Command line compressor         : C:\Program Files (x86)\Exact Audio Copy\FLAC\FLAC.EXE
Additional command line options : -V -8 -T "ARTIST=%artist%" -T "TITLE=%title%" -T "ALBUM=%albumtitle%" -T "DATE=%year%" -T "TRACKNUMBER=%tracknr%" -T "GENRE=%genre%" %source%

TOC of the extracted CD

     Track |   Start  |  Length  | Start sector | End sector
    ---------------------------------------------------------
        1  |  0:00.32 |  2:27.50 |        32    |    11106
        2  |  2:28.07 |  3:12.00 |     11107    |    25506
        3  |  5:40.07 |  2:29.00 |     25507    |    36681
        4  |  8:09.07 |  2:24.25 |     36682    |    47506
        5  | 10:33.32 |  3:10.50 |     47507    |    61806
        6  | 13:44.07 |  2:46.25 |     61807    |    74281
        7  | 16:30.32 |  2:37.25 |     74282    |    86081
        8  | 19:07.57 |  2:39.00 |     86082    |    98006
        9  | 21:46.57 |  2:54.25 |     98007    |   111081
       10  | 24:41.07 |  2:47.25 |    111082    |   123631
       11  | 27:28.32 |  2:23.00 |    123632    |   134356
       12  | 29:51.32 |  2:25.25 |    134357    |   145256
       13  | 32:16.57 |  2:25.50 |    145257    |   156181
       14  | 34:42.32 |  2:35.63 |    156182    |   167869
       15  | 37:18.20 |  2:11.37 |    167870    |   177731
       16  | 39:29.57 |  2:18.50 |    177732    |   188131
       17  | 41:48.32 |  2:19.00 |    188132    |   198556

Track  1

     Filename D:\Music\Musicgate's rips\Rose Murphy - The Complete RCA Victor Recordings - 1997 (BMG France) [FLAC]\01. A Little Bird Told Me.wav

     Pre-gap length  0:00:02.32

     Peak level 85.6 %
     Extraction speed 0.9 X
     Track quality 100.0 %
     Test CRC 637B72DF
     Copy CRC 637B72DF
     Accurately ripped (confidence 3)  [CA656990]  (AR v2)
     Copy OK

Track  2

     Filename D:\Music\Musicgate's rips\Rose Murphy - The Complete RCA Victor Recordings - 1997 (BMG France) [FLAC]\02. Baby, Baby.wav

     Pre-gap length  0:00:01.00

     Peak level 88.7 %
     Extraction speed 1.0 X
     Track quality 100.0 %
     Test CRC 17F4BEA6
     Copy CRC 17F4BEA6
     Accurately ripped (confidence 3)  [2C91A8B8]  (AR v2)
     Copy OK

Track  3

     Filename D:\Music\Musicgate's rips\Rose Murphy - The Complete RCA Victor Recordings - 1997 (BMG France) [FLAC]\03. Pennies From Heaven.wav

     Pre-gap length  0:00:01.00

     Peak level 97.3 %
     Extraction speed 1.0 X
     Track quality 100.0 %
     Test CRC 8A609969
     Copy CRC 8A609969
     Accurately ripped (confidence 3)  [506914DC]  (AR v2)
     Copy OK

Track  4

     Filename D:\Music\Musicgate's rips\Rose Murphy - The Complete RCA Victor Recordings - 1997 (BMG France) [FLAC]\04. You Were Meant For Me.wav

     Pre-gap length  0:00:01.00

     Peak level 84.6 %
     Extraction speed 1.1 X
     Track quality 100.0 %
     Test CRC 62CF235B
     Copy CRC 62CF235B
     Accurately ripped (confidence 3)  [68389CA4]  (AR v2)
     Copy OK

Track  5

     Filename D:\Music\Musicgate's rips\Rose Murphy - The Complete RCA Victor Recordings - 1997 (BMG France) [FLAC]\05. Girls Were Made To Take Care Of Boys.wav

     Pre-gap length  0:00:01.00

     Peak level 86.8 %
     Extraction speed 1.2 X
     Track quality 100.0 %
     Test CRC CB9CB796
     Copy CRC CB9CB796
     Accurately ripped (confidence 3)  [2439529C]  (AR v2)
     Copy OK

Track  6

     Filename D:\Music\Musicgate's rips\Rose Murphy - The Complete RCA Victor Recordings - 1997 (BMG France) [FLAC]\06. Busy Line.wav

     Pre-gap length  0:00:01.00

     Peak level 98.3 %
     Extraction speed 1.1 X
     Track quality 99.9 %
     Test CRC 9E381F76
     Copy CRC 9E381F76
     Accurately ripped (confidence 3)  [DE9230C0]  (AR v2)
     Copy OK

Track  7

     Filename D:\Music\Musicgate's rips\Rose Murphy - The Complete RCA Victor Recordings - 1997 (BMG France) [FLAC]\07. Is I In Love  I is.wav

     Pre-gap length  0:00:01.00

     Peak level 96.5 %
     Extraction speed 1.1 X
     Track quality 99.9 %
     Test CRC E9E8B24B
     Copy CRC E9E8B24B
     Accurately ripped (confidence 3)  [F4DBAE58]  (AR v2)
     Copy OK

Track  8

     Filename D:\Music\Musicgate's rips\Rose Murphy - The Complete RCA Victor Recordings - 1997 (BMG France) [FLAC]\08. Gee, I Wonder What The Trouble Can Be.wav

     Pre-gap length  0:00:01.00

     Peak level 90.1 %
     Extraction speed 1.2 X
     Track quality 99.9 %
     Test CRC 9F98821B
     Copy CRC 9F98821B
     Accurately ripped (confidence 3)  [DE3763DE]  (AR v2)
     Copy OK

Track  9

     Filename D:\Music\Musicgate's rips\Rose Murphy - The Complete RCA Victor Recordings - 1997 (BMG France) [FLAC]\09. Honeysuckle Rose.wav

     Pre-gap length  0:00:01.00

     Peak level 98.3 %
     Extraction speed 1.4 X
     Track quality 100.0 %
     Test CRC DFE043FD
     Copy CRC DFE043FD
     Accurately ripped (confidence 3)  [256DD75F]  (AR v2)
     Copy OK

Track 10

     Filename D:\Music\Musicgate's rips\Rose Murphy - The Complete RCA Victor Recordings - 1997 (BMG France) [FLAC]\10. Rosetta.wav

     Pre-gap length  0:00:01.00

     Peak level 89.5 %
     Extraction speed 1.3 X
     Track quality 99.9 %
     Test CRC F8D47AFA
     Copy CRC F8D47AFA
     Accurately ripped (confidence 3)  [C2D5522F]  (AR v2)
     Copy OK

Track 11

     Filename D:\Music\Musicgate's rips\Rose Murphy - The Complete RCA Victor Recordings - 1997 (BMG France) [FLAC]\11. You, Wonderful You.wav

     Pre-gap length  0:00:01.00

     Peak level 88.3 %
     Extraction speed 1.5 X
     Track quality 100.0 %
     Test CRC D9331241
     Copy CRC D9331241
     Accurately ripped (confidence 3)  [86DF6E9B]  (AR v2)
     Copy OK

Track 12

     Filename D:\Music\Musicgate's rips\Rose Murphy - The Complete RCA Victor Recordings - 1997 (BMG France) [FLAC]\12. Hey ! Mama.wav

     Pre-gap length  0:00:01.00

     Peak level 91.9 %
     Extraction speed 1.5 X
     Track quality 100.0 %
     Test CRC 49434A23
     Copy CRC 49434A23
     Accurately ripped (confidence 3)  [38699201]  (AR v2)
     Copy OK

Track 13

     Filename D:\Music\Musicgate's rips\Rose Murphy - The Complete RCA Victor Recordings - 1997 (BMG France) [FLAC]\13. If You Were Only Mine.wav

     Pre-gap length  0:00:01.00

     Peak level 88.5 %
     Extraction speed 1.6 X
     Track quality 100.0 %
     Test CRC B8A31FCA
     Copy CRC B8A31FCA
     Accurately ripped (confidence 3)  [87C855AB]  (AR v2)
     Copy OK

Track 14

     Filename D:\Music\Musicgate's rips\Rose Murphy - The Complete RCA Victor Recordings - 1997 (BMG France) [FLAC]\14. Not Tonight.wav

     Pre-gap length  0:00:01.00

     Peak level 86.6 %
     Extraction speed 1.6 X
     Track quality 100.0 %
     Test CRC E84B240E
     Copy CRC E84B240E
     Accurately ripped (confidence 3)  [E1720B69]  (AR v2)
     Copy OK

Track 15

     Filename D:\Music\Musicgate's rips\Rose Murphy - The Complete RCA Victor Recordings - 1997 (BMG France) [FLAC]\15. Is I In Love  I Is.wav

     Pre-gap length  0:00:01.00

     Peak level 78.2 %
     Extraction speed 1.3 X
     Track quality 99.9 %
     Test CRC 28116675
     Copy CRC 28116675
     Accurately ripped (confidence 3)  [881122EB]  (AR v2)
     Copy OK

Track 16

     Filename D:\Music\Musicgate's rips\Rose Murphy - The Complete RCA Victor Recordings - 1997 (BMG France) [FLAC]\16. Don't Stop.wav

     Pre-gap length  0:00:01.00

     Peak level 95.1 %
     Extraction speed 1.7 X
     Track quality 100.0 %
     Test CRC 739848F1
     Copy CRC 739848F1
     Accurately ripped (confidence 3)  [5282D75C]  (AR v2)
     Copy OK

Track 17

     Filename D:\Music\Musicgate's rips\Rose Murphy - The Complete RCA Victor Recordings - 1997 (BMG France) [FLAC]\17. Don't Stop.wav

     Pre-gap length  0:00:01.00

     Peak level 77.0 %
     Extraction speed 1.7 X
     Track quality 100.0 %
     Test CRC FEE05580
     Copy CRC FEE05580
     Accurately ripped (confidence 3)  [AAC3B972]  (AR v2)
     Copy OK

All tracks accurately ripped

No errors occurred

End of status report

---- CUETools DB Plugin V2.1.6

[CTDB TOCID: x_DNYQ504IVhS0XDno8nG42f7Ik-] found
Submit result: x_DNYQ504IVhS0XDno8nG42f7Ik- has been confirmed
Track | CTDB Status
  1   | (18/18) Accurately ripped
  2   | (18/18) Accurately ripped
  3   | (18/18) Accurately ripped
  4   | (18/18) Accurately ripped
  5   | (18/18) Accurately ripped
  6   | (18/18) Accurately ripped
  7   | (18/18) Accurately ripped
  8   | (18/18) Accurately ripped
  9   | (18/18) Accurately ripped
 10   | (18/18) Accurately ripped
 11   | (18/18) Accurately ripped
 12   | (18/18) Accurately ripped
 13   | (18/18) Accurately ripped
 14   | (18/18) Accurately ripped
 15   | (18/18) Accurately ripped
 16   | (18/18) Accurately ripped
 17   | (18/18) Accurately ripped

==== Log checksum C660E4363892B5508661985DF939231141E5B78761BD470E2185B64E22457E4C ====
No seeders - write personal message to M0p94ok. Any questions - support@pro-jazz.com.
Нет сидеров - пишите в личку M0p94ok. Есть вопросы - support@pro-jazz.com
00:10
56
Нет комментариев. Ваш будет первым!