Поиск

(world music, fusion, сontemporary jazz) Richard Bona "Reverence" - 2001, FLAC (tracks+.cue), lossless

(world music, fusion, сontemporary jazz) Richard Bona "Reverence" - 2001, FLAC (tracks+.cue), lossless
Треклист:
Richard Bona "Reverence"
Жанр: world music, fusion, сontemporary jazz
Год выпуска диска: 2001
Аудио кодек: FLAC
Тип рипа: tracks+.cue
Битрейт аудио: lossless
Продолжительность: 45-04
Трэклист:
1. Invocation (A Prophecy)
2. Bisso Baba (Always Together)
3. Suninga (When Will I Ever See You?)
4. Ekwa Mwato (Affirmation Of The Spirit)
5. Sweet Mary (Everyone Has A Choice)
6. Reverence (The Story Of A Miracle)
7. Te Misea (A Scream To Save The Planet)
8. Muntula Moto (The Benediction Of A Long Life)
9. Laka Mba (Plea For Forgiveness {With The Pride Of Lions})
10. Ngad'a Ndutu (Widow's Dance {Celebration Of A New Life})
11. Esoka (Trust Your Heart)
12. Mbanga Kumba (Two Cities, One Train)
Доп. информация:
 
log
Exact Audio Copy V0.99 prebeta 5 from 4. May 2009
EAC extraction logfile from 13. February 2010, 11:04
Richard Bona / Reverence
Used drive : HL-DT-STDVDRAM GSA-T20N Adapter: 1 ID: 0
Read mode : Secure
Utilize accurate stream : Yes
Defeat audio cache : Yes
Make use of C2 pointers : No
Read offset correction : 667
Overread into Lead-In and Lead-Out : No
Fill up missing offset samples with silence : Yes
Delete leading and trailing silent blocks : No
Null samples used in CRC calculations : Yes
Used interface : Native Win32 interface for Win NT & 2000
Gap handling : Appended to previous track
Used output format : User Defined Encoder
Selected bitrate : 320 kBit/s
Quality : High
Add ID3 tag : No
Command line compressor : C:\Program Files\Exact Audio Copy\Flac\flac.exe
Additional command line options : -V -8 -T "artist=%a" -T "title=%t" -T "album=%g" -T "date=%y" -T "tracknumber=%n" -T "genre=%m" %s
TOC of the extracted CD
Track | Start | Length | Start sector | End sector
---------------------------------------------------------
1 | 0:00.00 | 2:06.07 | 0 | 9456
2 | 2:06.07 | 4:48.03 | 9457 | 31059
3 | 6:54.10 | 3:59.37 | 31060 | 49021
4 | 10:53.47 | 4:58.28 | 49022 | 71399
5 | 15:52.00 | 4:24.22 | 71400 | 91221
6 | 20:16.22 | 4:37.73 | 91222 | 112069
7 | 24:54.20 | 5:21.47 | 112070 | 136191
8 | 30:15.67 | 4:05.35 | 136192 | 154601
9 | 34:21.27 | 4:48.58 | 154602 | 176259
10 | 39:10.10 | 4:13.20 | 176260 | 195254
11 | 43:23.30 | 1:44.22 | 195255 | 203076
12 | 45:07.52 | 2:51.63 | 203077 | 215964
Track 1
Filename D:\FLAC\Richard Bona - 2001 - Reverence\01 - Invocation (A Prophecy).wav
Pre-gap length 0:00:02.00
Peak level 99.3 %
Track quality 100.0 %
Test CRC EAB32E9F
Copy CRC EAB32E9F
Cannot be verified as accurate (confidence 16) [555975A4], AccurateRip returned [3D206E85]
Copy OK
Track 2
Filename D:\FLAC\Richard Bona - 2001 - Reverence\02 - Bisso Baba (Always Together).wav
Peak level 99.3 %
Track quality 100.0 %
Test CRC 79DA2C2D
Copy CRC 79DA2C2D
Cannot be verified as accurate (confidence 16) [13CB8940], AccurateRip returned [4E6FDC63]
Copy OK
Track 3
Filename D:\FLAC\Richard Bona - 2001 - Reverence\03 - Suninga (When Will I Ever See You ).wav
Pre-gap length 0:00:00.73
Peak level 99.3 %
Track quality 100.0 %
Test CRC 3AB0E04D
Copy CRC 3AB0E04D
Cannot be verified as accurate (confidence 16) [F8CFFD47], AccurateRip returned [280E8EAE]
Copy OK
Track 4
Filename D:\FLAC\Richard Bona - 2001 - Reverence\04 - Ekwa Mwato (Affirmation Of The Spirit).wav
Peak level 99.3 %
Track quality 100.0 %
Test CRC FD7F7C5F
Copy CRC FD7F7C5F
Cannot be verified as accurate (confidence 16) [70A4F1BA], AccurateRip returned [C2EFB567]
Copy OK
Track 5
Filename D:\FLAC\Richard Bona - 2001 - Reverence\05 - Sweet Mary (Everyone Has A Choice).wav
Pre-gap length 0:00:00.66
Peak level 99.3 %
Track quality 100.0 %
Test CRC 2B8E6C46
Copy CRC 2B8E6C46
Cannot be verified as accurate (confidence 16) [25FA2A10], AccurateRip returned [7D4754B9]
Copy OK
Track 6
Filename D:\FLAC\Richard Bona - 2001 - Reverence\06 - Reverence (The Story Of A Miracle).wav
Pre-gap length 0:00:00.96
Peak level 99.3 %
Track quality 100.0 %
Test CRC A43EF9FC
Copy CRC A43EF9FC
Cannot be verified as accurate (confidence 16) [7E4D88BD], AccurateRip returned [0D4E6301]
Copy OK
Track 7
Filename D:\FLAC\Richard Bona - 2001 - Reverence\07 - Te Misea (A Scream To Save The Planet).wav
Pre-gap length 0:00:00.60
Peak level 99.3 %
Track quality 100.0 %
Test CRC 2E64B179
Copy CRC 2E64B179
Cannot be verified as accurate (confidence 16) [441E424A], AccurateRip returned [753FBBB1]
Copy OK
Track 8
Filename D:\FLAC\Richard Bona - 2001 - Reverence\08 - Muntula Moto (The Benediction Of A Long Life).wav
Pre-gap length 0:00:01.16
Peak level 99.3 %
Track quality 100.0 %
Test CRC 82F35507
Copy CRC 82F35507
Cannot be verified as accurate (confidence 16) [DE9132FE], AccurateRip returned [7B936D20]
Copy OK
Track 9
Filename D:\FLAC\Richard Bona - 2001 - Reverence\09 - Laka Mba (Plea For Forgiveness {With The Pride Of Lions}).wav
Peak level 99.3 %
Track quality 100.0 %
Test CRC ED3C3F53
Copy CRC ED3C3F53
Cannot be verified as accurate (confidence 16) [046CB79A], AccurateRip returned [D30B278C]
Copy OK
Track 10
Filename D:\FLAC\Richard Bona - 2001 - Reverence\10 - Ngad'a Ndutu (Widow's Dance {Celebration Of A New Life}).wav
Pre-gap length 0:00:02.10
Peak level 99.3 %
Track quality 100.0 %
Test CRC C9F2991F
Copy CRC C9F2991F
Cannot be verified as accurate (confidence 16) [C8892F08], AccurateRip returned [DD19CBF8]
Copy OK
Track 11
Filename D:\FLAC\Richard Bona - 2001 - Reverence\11 - Esoka (Trust Your Heart).wav
Pre-gap length 0:00:01.26
Peak level 90.8 %
Track quality 99.8 %
Test CRC 957BCE34
Copy CRC 957BCE34
Cannot be verified as accurate (confidence 16) [4F6E8537], AccurateRip returned [25517AB9]
Copy OK
Track 12
Filename D:\FLAC\Richard Bona - 2001 - Reverence\12 - Mbanga Kumba (Two Cities, One Train).wav
Pre-gap length 0:00:02.46
Peak level 99.3 %
Track quality 100.0 %
Test CRC 3145FDD4
Copy CRC 3145FDD4
Cannot be verified as accurate (confidence 16) [387B37BB], AccurateRip returned [4FAFA8D2]
Copy OK
No tracks could be verified as accurate
You may have a different pressing from the one(s) in the database
No errors occurred
End of status report
 
cue
REM GENRE Jazz
REM DATE 2001
REM DISCID A10B3F0C
REM COMMENT "ExactAudioCopy v0.99pb5"
FILE "01 - Invocation (A Prophecy).wav" WAVE
TRACK 01 AUDIO
INDEX 01 00:00:00
FILE "02 - Bisso Baba (Always Together).wav" WAVE
TRACK 02 AUDIO
INDEX 01 00:00:00
TRACK 03 AUDIO
INDEX 00 04:47:23
FILE "03 - Suninga (When Will I Ever See You ).wav" WAVE
INDEX 01 00:00:00
FILE "04 - Ekwa Mwato (Affirmation Of The Spirit).wav" WAVE
TRACK 04 AUDIO
INDEX 01 00:00:00
TRACK 05 AUDIO
INDEX 00 04:57:53
FILE "05 - Sweet Mary (Everyone Has A Choice).wav" WAVE
INDEX 01 00:00:00
TRACK 06 AUDIO
INDEX 00 04:23:25
FILE "06 - Reverence (The Story Of A Miracle).wav" WAVE
INDEX 01 00:00:00
TRACK 07 AUDIO
INDEX 00 04:37:28
FILE "07 - Te Misea (A Scream To Save The Planet).wav" WAVE
INDEX 01 00:00:00
TRACK 08 AUDIO
INDEX 00 05:20:35
FILE "08 - Muntula Moto (The Benediction Of A Long Life).wav" WAVE
INDEX 01 00:00:00
FILE "09 - Laka Mba (Plea For Forgiveness {With The Pride Of Lions}).wav" WAVE
TRACK 09 AUDIO
INDEX 01 00:00:00
TRACK 10 AUDIO
INDEX 00 04:46:50
FILE "10 - Ngad'a Ndutu (Widow's Dance {Celebration Of A New Life}).wav" WAVE
INDEX 01 00:00:00
TRACK 11 AUDIO
INDEX 00 04:12:00
FILE "11 - Esoka (Trust Your Heart).wav" WAVE
INDEX 01 00:00:00
TRACK 12 AUDIO
INDEX 00 01:41:62
FILE "12 - Mbanga Kumba (Two Cities, One Train).wav" WAVE
INDEX 01 00:00:00

 
Artist List:
RICHARD BONA- bass, flute, piccolo bass, vocals, keyboards, guitar, percussion
JOHN MOSES- bass clarinet
MAXINE NEUMAN- cello
RICHARD LOCKER- cello
LOUISE SCHULMAN- violin
DAVID CERUTTI- viola
LUIS QUINTERO- percussion
SHERYL HENZE- bass flute
ALAN COX- flute
GRACE PARADISE- harp
ETIENNE STADWIJK- keyboards
EDSEL GOMEZ- piano
OZ NOY- guitar
PAT METHENY- guitar
VINNIE COLAIUTA- drums
AARON HEICK- alto and tenor sax
BARRY WHITE- groomer
GIL GOLDSTEIN- conductor, string arrangements

Другие альбомы исполнителя на трекере:
Richard Bona - Scenes From My Life - 1999, FLAC (tracks), lossless
Richard Bona - Munia / The Tale - 2003, FLAC (image+.cue), lossless
Lokua Kanza; Richard Bona; Gerald Toto - Toto Bona Lokua - 2005, APE (image+.cue), lossless
Richard Bona - Tiki - 2006, APE (tracks), lossless ®
Richard Bona - Bona Makes You Sweat (Live) - 2008, APE (image+.cue), lossless
Richard Bona - The Ten Shades of Blues - 2009, FLAC (tracks+.cue), lossless
MySpace
12:45
365
Нет комментариев. Ваш будет первым!