Поиск

1999 Theodosii Spassov, Nikola Iliev - Na Trapeza {Gega GD207}

1999 Theodosii Spassov, Nikola Iliev - Na Trapeza {Gega GD207}

Треклист:

Год выпуска диска: 1999
Производитель диска: Bulgaria
Место записи: Sts. Cyril Methodius Bulgarian Church, NY
Аудио кодек: APE
Тип рипа: image+.cue
Битрейт аудио: lossless
Продолжительность: 63,02 min

Треклист:
1. Kakvo Mi Chudo Stanalo (1) - 8:27
2. Clarinet Solo - 10:57
3. Gano, Gano - 2:09
4. Kine Le - 10:36
5. Chorbajiyskata - 5:00
6. Kaval Solo - 10:51
7. Kakvo Mi Chudo Stanalo (2) - 15:04

Теодосий Спасов (кавал) и Никола Илиев (кларнет) - легендарные исполнители современной болгарской народной музыки. Теодосий известен своими опытами с экспериментальной музыкой, сочетающей элементы болгарского фольклора, джаза, классического и популярного стилей. Никола известен как участник народного театра "Свадебные оркестры". 

 
Отчёт EAC
Exact Audio Copy V0.99 prebeta 5 from 4. May 2009
Отчёт EAC об извлечении, выполненном 25. февраля 2010, 16:38
Theodosii Spassov / Na Trapeza
Дисковод: HL-DT-STDVDRAM GSA-T20N Adapter: 1 ID: 0
Режим чтения : Достоверность
Использование точного потока : Да
Отключение кэша аудио : Да
Использование указателей C2 : Нет
Коррекция смещения при чтении : 667
Способность читать области Lead-in и Lead-out : Нет
Заполнение пропущенных сэмплов тишиной : Да
Удаление блоков с тишиной в начале и конце : Нет
При вычислениях CRC использовались нулевые сэмплы : Да
Интерфейс : Установленный внешний ASPI-интерфейс
Выходной формат : Внутренние WAV-операции
Формат сэмплов : 44.100 Гц; 16 бит; стерео
TOC извлечённого CD
Трек | Старт | Длительность | Начальный сектор | Конечный сектор
---------------------------------------------------------------------
1 | 0:00.00 | 8:27.00 | 0 | 38024
2 | 8:27.00 | 10:57.37 | 38025 | 87336
3 | 19:24.37 | 2:09.18 | 87337 | 97029
4 | 21:33.55 | 10:36.50 | 97030 | 144779
5 | 32:10.30 | 5:00.10 | 144780 | 167289
6 | 37:10.40 | 10:51.35 | 167290 | 216149
7 | 48:02.00 | 15:04.72 | 216150 | 284021
Характеристики диапазона извлечения и сообщения об ошибках
Выбранный диапазон
Имя файла C:\Documents and Settings\User\Рабочий стол\Theodosii Spassov - Na Trapeza.wav
Пиковый уровень 90.7 %
Качество диапазона 100.0 %
CRC теста C2797E37
CRC копии C2797E37
Копирование... OK
Ошибок не произошло
Конец отчёта

 

Состав:
  • Nikola Iliev    Clarinet, Compilation Producer, Composer, Liner Notes
  • Mark Levy    Liner Notes
  • Theodosii Spassov    Compilation Producer, Composer, Design, Kaval, Liner Notes
По всем вопросам пишите личное сообщение пользователю M0p94ok.
11:45
420
Нет комментариев. Ваш будет первым!