Поиск

(Ethnic Jazz / Contemporary) Vasko Atanasovski - Bohemia [2CD] - 2009, FLAC (tracks+.cue), lossless

(Ethnic Jazz / Contemporary) Vasko Atanasovski - Bohemia [2CD] - 2009, FLAC (tracks+.cue), lossless
Треклист:
Vasko Atanasovski - Bohemia
Жанр: Ethnic Jazz / Contemporary
Год выпуска : 2009
Страна: Словения
Аудио кодек: FLAC
Тип рипа: tracks+.cue
Битрейт аудио: lossless
Продолжительность: 01:14:22 + 00:42:34
Рип: Gracija - What CD


CD 1
01. Midnight Summer Concert 1 (7:45)
02. Midnight Summer Concert 2 (10:07)
03. Midnight Summer Concert 3 (8:53)
04. Liberation (13:22)
05. Concerto Balsamico (11:06)
06. Onstranstvo / Beyondness (13:25)
07. Happy Song (9:43)
CD 2
01. Aaruau Afternoon (6:27)
02. Zadnji dan poletja / The Last Day of Summer (15:53)
03. Recercada Segvnda sobre el mismo madrigal (2:27)
04. Zbiranje obrazov / Collecting Faces (7:41)
05. Spero dum spiro (10:06)

 
EAC
Exact Audio Copy V0.99 prebeta 5 from 4. May 2009
EAC extraction logfile from 10. February 2010, 2:17
Vasko Atanasovski / Bohemia - Disc 1
Used drive : _NEC DVD_RW ND-2510A Adapter: 0 ID: 1
Read mode : Secure
Utilize accurate stream : Yes
Defeat audio cache : Yes
Make use of C2 pointers : No
Read offset correction : 48
Overread into Lead-In and Lead-Out : No
Fill up missing offset samples with silence : Yes
Delete leading and trailing silent blocks : No
Null samples used in CRC calculations : Yes
Used interface : Native Win32 interface for Win NT & 2000
Gap handling : Appended to previous track
Used output format : User Defined Encoder
Selected bitrate : 768 kBit/s
Quality : High
Add ID3 tag : No
Command line compressor : C:\Program Files (x86)\Exact Audio Copy\FLAC\FLAC.EXE
Additional command line options : -6 -V -T "ARTIST=%a" -T "TITLE=%t" -T "ALBUM=%g" -T "DATE=%y" -T "TRACKNUMBER=%n" -T "GENRE=%m" -T "COMMENT=%e" %s -o %d
TOC of the extracted CD
Track | Start | Length | Start sector | End sector
---------------------------------------------------------
1 | 0:00.00 | 7:44.40 | 0 | 34839
2 | 7:44.40 | 10:07.25 | 34840 | 80389
3 | 17:51.65 | 8:52.68 | 80390 | 120357
4 | 26:44.58 | 13:22.30 | 120358 | 180537
5 | 40:07.13 | 11:06.32 | 180538 | 230519
6 | 51:13.45 | 13:25.32 | 230520 | 290926
7 | 64:39.02 | 9:43.28 | 290927 | 334679
Track 1
Filename C:\flac\Midnight Summer Concert 1.wav
Pre-gap length 0:00:02.00
Peak level 100.0 %
Track quality 99.9 %
Test CRC 37078148
Copy CRC 37078148
Track not present in AccurateRip database
Copy OK
Track 2
Filename C:\flac\Midnight Summer Concert 2.wav
Peak level 98.1 %
Track quality 99.9 %
Test CRC F9FE728F
Copy CRC F9FE728F
Track not present in AccurateRip database
Copy OK
Track 3
Filename C:\flac\Midnight Summer Concert 3.wav
Peak level 100.0 %
Track quality 100.0 %
Test CRC 5A6FB8AC
Copy CRC 5A6FB8AC
Track not present in AccurateRip database
Copy OK
Track 4
Filename C:\flac\Liberation.wav
Peak level 100.0 %
Track quality 99.9 %
Test CRC FF71CDF6
Copy CRC FF71CDF6
Track not present in AccurateRip database
Copy OK
Track 5
Filename C:\flac\Concerto Balsamico.wav
Peak level 100.0 %
Track quality 99.9 %
Test CRC 9839B818
Copy CRC 9839B818
Track not present in AccurateRip database
Copy OK
Track 6
Filename C:\flac\Onstranstvo , Beyondness.wav
Peak level 100.0 %
Track quality 99.8 %
Test CRC E0FD55B2
Copy CRC E0FD55B2
Track not present in AccurateRip database
Copy OK
Track 7
Filename C:\flac\Happy Song.wav
Peak level 100.0 %
Track quality 99.8 %
Test CRC 1F4B3AB1
Copy CRC 1F4B3AB1
Track not present in AccurateRip database
Copy OK
None of the tracks are present in the AccurateRip database
No errors occurred
End of status report
 
CUE
REM GENRE Jazz
REM DATE 2009
REM DISCID 5C116E07
REM COMMENT "ExactAudioCopy v0.99pb5"
PERFORMER "Vasko Atanasovski"
TITLE "Bohemia - Disc 1"
FILE "01 - Midnight Summer Concert 1.wav" WAVE
TRACK 01 AUDIO
TITLE "Midnight Summer Concert 1"
PERFORMER "Vasko Atanasovski"
INDEX 01 00:00:00
FILE "02 - Midnight Summer Concert 2.wav" WAVE
TRACK 02 AUDIO
TITLE "Midnight Summer Concert 2"
PERFORMER "Vasko Atanasovski"
INDEX 01 00:00:00
FILE "03 - Midnight Summer Concert 3.wav" WAVE
TRACK 03 AUDIO
TITLE "Midnight Summer Concert 3"
PERFORMER "Vasko Atanasovski"
INDEX 01 00:00:00
FILE "04 - Liberation.wav" WAVE
TRACK 04 AUDIO
TITLE "Liberation"
PERFORMER "Vasko Atanasovski"
INDEX 01 00:00:00
FILE "05 - Concerto Balsamico.wav" WAVE
TRACK 05 AUDIO
TITLE "Concerto Balsamico"
PERFORMER "Vasko Atanasovski"
INDEX 01 00:00:00
FILE "06 - Onstranstvo , Beyondness.wav" WAVE
TRACK 06 AUDIO
TITLE "Onstranstvo / Beyondness"
PERFORMER "Vasko Atanasovski"
INDEX 01 00:00:00
FILE "07 - Happy Song.wav" WAVE
TRACK 07 AUDIO
TITLE "Happy Song"
PERFORMER "Vasko Atanasovski"
INDEX 01 00:00:00
 
EAC 2
Exact Audio Copy V0.99 prebeta 5 from 4. May 2009
EAC extraction logfile from 10. February 2010, 2:42
Vasko Atanasovski / Bohemia - Disc 2
Used drive : _NEC DVD_RW ND-2510A Adapter: 0 ID: 1
Read mode : Secure
Utilize accurate stream : Yes
Defeat audio cache : Yes
Make use of C2 pointers : No
Read offset correction : 48
Overread into Lead-In and Lead-Out : No
Fill up missing offset samples with silence : Yes
Delete leading and trailing silent blocks : No
Null samples used in CRC calculations : Yes
Used interface : Native Win32 interface for Win NT & 2000
Gap handling : Appended to previous track
Used output format : User Defined Encoder
Selected bitrate : 768 kBit/s
Quality : High
Add ID3 tag : No
Command line compressor : C:\Program Files (x86)\Exact Audio Copy\FLAC\FLAC.EXE
Additional command line options : -6 -V -T "ARTIST=%a" -T "TITLE=%t" -T "ALBUM=%g" -T "DATE=%y" -T "TRACKNUMBER=%n" -T "GENRE=%m" -T "COMMENT=%e" %s -o %d
TOC of the extracted CD
Track | Start | Length | Start sector | End sector
---------------------------------------------------------
1 | 0:00.00 | 6:27.21 | 0 | 29045
2 | 6:27.21 | 15:52.71 | 29046 | 100516
3 | 22:20.17 | 2:26.45 | 100517 | 111511
4 | 24:46.62 | 7:41.05 | 111512 | 146091
5 | 32:27.67 | 10:06.25 | 146092 | 191566
Track 1
Filename C:\flac\01 - Vasko Atanasovski - Bohemia - Disc 2 - Aaruau Afternoon.wav
Pre-gap length 0:00:02.00
Peak level 92.1 %
Track quality 100.0 %
Test CRC 04E8A864
Copy CRC 04E8A864
Track not present in AccurateRip database
Copy OK
Track 2
Filename C:\flac\02 - Vasko Atanasovski - Bohemia - Disc 2 - Zadnji dan poletja , The Last Day of Summer.wav
Pre-gap length 0:00:02.00
Peak level 99.9 %
Track quality 100.0 %
Test CRC 4BE0A3CB
Copy CRC 4BE0A3CB
Track not present in AccurateRip database
Copy OK
Track 3
Filename C:\flac\03 - Vasko Atanasovski - Bohemia - Disc 2 - Recercada Segvnda sobre el mismo madrigal.wav
Pre-gap length 0:00:02.00
Peak level 97.8 %
Track quality 100.0 %
Test CRC 4CE8599A
Copy CRC 4CE8599A
Track not present in AccurateRip database
Copy OK
Track 4
Filename C:\flac\04 - Vasko Atanasovski - Bohemia - Disc 2 - Zbiranje obrazov , Collecting Faces.wav
Pre-gap length 0:00:02.00
Peak level 73.3 %
Track quality 100.0 %
Test CRC AA274A2F
Copy CRC AA274A2F
Track not present in AccurateRip database
Copy OK
Track 5
Filename C:\flac\05 - Vasko Atanasovski - Bohemia - Disc 2 - Spero dum spiro.wav
Pre-gap length 0:00:02.00
Peak level 93.3 %
Track quality 100.0 %
Test CRC 55BD06B5
Copy CRC 55BD06B5
Track not present in AccurateRip database
Copy OK
None of the tracks are present in the AccurateRip database
No errors occurred
End of status report
 
CUE 2
REM GENRE Jazz
REM DATE 2009
REM DISCID 4C09FA05
REM COMMENT "ExactAudioCopy v0.99pb5"
PERFORMER "Vasko Atanasovski"
TITLE "Bohemia - Disc 2"
FILE "01 - Aaruau Afternoon.wav" WAVE
TRACK 01 AUDIO
TITLE "Aaruau Afternoon"
PERFORMER "Vasko Atanasovski"
INDEX 01 00:00:00
TRACK 02 AUDIO
TITLE "Zadnji dan poletja / The Last Day of Summer"
PERFORMER "Vasko Atanasovski"
INDEX 00 06:25:21
FILE "02 - Zadnji dan poletja , The Last Day of Summer.wav" WAVE
INDEX 01 00:00:00
TRACK 03 AUDIO
TITLE "Recercada Segvnda sobre el mismo madrigal"
PERFORMER "Vasko Atanasovski"
INDEX 00 15:50:71
FILE "03 - Recercada Segvnda sobre el mismo madrigal.wav" WAVE
INDEX 01 00:00:00
TRACK 04 AUDIO
TITLE "Zbiranje obrazov / Collecting Faces"
PERFORMER "Vasko Atanasovski"
INDEX 00 02:24:45
FILE "04 - Zbiranje obrazov , Collecting Faces.wav" WAVE
INDEX 01 00:00:00
TRACK 05 AUDIO
TITLE "Spero dum spiro"
PERFORMER "Vasko Atanasovski"
INDEX 00 07:39:05
FILE "05 - Spero dum spiro.wav" WAVE
INDEX 01 00:00:00
 
Audiochecker для CD1 И CD2
Started at: четверг, 25. 02. 2010. - 13:30.20
7 files found
1 -===- C:\Downloads\Music\Джаз\Vasko Atanasovski - Bohemia - 2009\Disc1\01 - Midnight Summer Concert 1.flac
Extracted successfully
Conclusion: This track looks like CDDA with probability 100%
Tempfile successfully deleted.
2 -===- C:\Downloads\Music\Джаз\Vasko Atanasovski - Bohemia - 2009\Disc1\02 - Midnight Summer Concert 2.flac
Extracted successfully
Conclusion: This track looks like CDDA with probability 100%
Tempfile successfully deleted.
3 -===- C:\Downloads\Music\Джаз\Vasko Atanasovski - Bohemia - 2009\Disc1\03 - Midnight Summer Concert 3.flac
Extracted successfully
Conclusion: This track looks like CDDA with probability 100%
Tempfile successfully deleted.
4 -===- C:\Downloads\Music\Джаз\Vasko Atanasovski - Bohemia - 2009\Disc1\04 - Liberation.flac
Extracted successfully
Conclusion: This track looks like CDDA with probability 100%
Tempfile successfully deleted.
5 -===- C:\Downloads\Music\Джаз\Vasko Atanasovski - Bohemia - 2009\Disc1\05 - Concerto Balsamico.flac
Extracted successfully
Conclusion: This track looks like CDDA with probability 99%
Tempfile successfully deleted.
6 -===- C:\Downloads\Music\Джаз\Vasko Atanasovski - Bohemia - 2009\Disc1\06 - Onstranstvo - Beyondness.flac
Extracted successfully
Conclusion: This track looks like CDDA with probability 100%
Tempfile successfully deleted.
7 -===- C:\Downloads\Music\Джаз\Vasko Atanasovski - Bohemia - 2009\Disc1\07 - Happy Song.flac
Extracted successfully
Conclusion: This track looks like CDDA with probability 100%
Tempfile successfully deleted.
Finished at: четверг, 25. 02. 2010. - 13:43.20 (operation time: 0:12.59)
-----------------------------------------------------------
Started at: четверг, 25. 02. 2010. - 13:45.49
5 files found
1 -===- C:\Downloads\Music\Джаз\Vasko Atanasovski - Bohemia - 2009\Disc2\01 - Vasko Atanasovski - Bohemia - Disc 2 - Aaruau Afternoon.flac
Extracted successfully
Conclusion: This track looks like CDDA with probability 100%
Tempfile successfully deleted.
2 -===- C:\Downloads\Music\Джаз\Vasko Atanasovski - Bohemia - 2009\Disc2\02 - Vasko Atanasovski - Bohemia - Disc 2 - Zadnji dan poletja , The Last Day of Summer.flac
Extracted successfully
Conclusion: This track looks like CDDA with probability 100%
Tempfile successfully deleted.
3 -===- C:\Downloads\Music\Джаз\Vasko Atanasovski - Bohemia - 2009\Disc2\03 - Vasko Atanasovski - Bohemia - Disc 2 - Recercada Segvnda sobre el mismo madrigal.flac
Extracted successfully
Conclusion: This track looks like CDDA with probability 99%
Tempfile successfully deleted.
4 -===- C:\Downloads\Music\Джаз\Vasko Atanasovski - Bohemia - 2009\Disc2\04 - Vasko Atanasovski - Bohemia - Disc 2 - Zbiranje obrazov , Collecting Faces.flac
Extracted successfully
Conclusion: This track looks like CDDA with probability 100%
Tempfile successfully deleted.
5 -===- C:\Downloads\Music\Джаз\Vasko Atanasovski - Bohemia - 2009\Disc2\05 - Vasko Atanasovski - Bohemia - Disc 2 - Spero dum spiro.flac
Extracted successfully
Conclusion: This track looks like MPEG with probability 91%
Tempfile successfully deleted.
Finished at: четверг, 25. 02. 2010. - 13:53.55 (operation time: 0:08.06)

Vasko Atanasovski (SLO) – soprano, alto & baritone sax, flute, recorders; compositions;
Simone Zanchini (I) - accordion;
Zoltan Lantos (H) - 5 string violin;
Xu Fenxia (China) – guzengh, sanxian, voice;
Michel Godard (F) - tuba;
Ziga Golob (SLO) - double bass;
Krunoslav Levacic (CRO) - drums
Download available for power users only.
11:44
258
Нет комментариев. Ваш будет первым!